  0
SECTION
  2
HEADER
  9
$ACADVER
  1
AC1021
  9
$ACADMAINTVER
 70
    25
  9
$DWGCODEPAGE
  3
ANSI_932
  9
$LASTSAVEDBY
  1
CAD
  9
$INSBASE
 10
0.0
 20
0.0
 30
0.0
  9
$EXTMIN
 10
10740.88707013623
 20
1972.338889041377
 30
-0.0000000000000129
  9
$EXTMAX
 10
13891.32993019088
 20
6427.661150074168
 30
0.0000000000000023
  9
$LIMMIN
 10
0.0
 20
0.0
  9
$LIMMAX
 10
11880.0
 20
8400.0
  9
$ORTHOMODE
 70
     0
  9
$REGENMODE
 70
     1
  9
$FILLMODE
 70
     1
  9
$QTEXTMODE
 70
     0
  9
$MIRRTEXT
 70
     0
  9
$LTSCALE
 40
20.0
  9
$ATTMODE
 70
     1
  9
$TEXTSIZE
 40
2.5
  9
$TRACEWID
 40
0.05
  9
$TEXTSTYLE
  7
ゴシック
  9
$CLAYER
  8
0
  9
$CELTYPE
  6
CONTINUOUS
  9
$CECOLOR
 62
   256
  9
$CELTSCALE
 40
1.0
  9
$DISPSILH
 70
     0
  9
$DIMSCALE
 40
15.0
  9
$DIMASZ
 40
3.0
  9
$DIMEXO
 40
2.5
  9
$DIMDLI
 40
8.0
  9
$DIMRND
 40
0.0
  9
$DIMDLE
 40
0.0
  9
$DIMEXE
 40
1.0
  9
$DIMTP
 40
0.0
  9
$DIMTM
 40
0.0
  9
$DIMTXT
 40
3.5
  9
$DIMCEN
 40
0.09
  9
$DIMTSZ
 40
0.0
  9
$DIMTOL
 70
     0
  9
$DIMLIM
 70
     0
  9
$DIMTIH
 70
     0
  9
$DIMTOH
 70
     0
  9
$DIMSE1
 70
     0
  9
$DIMSE2
 70
     0
  9
$DIMTAD
 70
     1
  9
$DIMZIN
 70
     0
  9
$DIMBLK
  1
Open
  9
$DIMASO
 70
     1
  9
$DIMSHO
 70
     1
  9
$DIMPOST
  1

  9
$DIMAPOST
  1

  9
$DIMALT
 70
     0
  9
$DIMALTD
 70
     2
  9
$DIMALTF
 40
25.4
  9
$DIMLFAC
 40
1.0
  9
$DIMTOFL
 70
     0
  9
$DIMTVP
 40
0.0
  9
$DIMTIX
 70
     1
  9
$DIMSOXD
 70
     0
  9
$DIMSAH
 70
     0
  9
$DIMBLK1
  1

  9
$DIMBLK2
  1

  9
$DIMSTYLE
  2
15
  9
$DIMCLRD
 70
     0
  9
$DIMCLRE
 70
     0
  9
$DIMCLRT
 70
     0
  9
$DIMTFAC
 40
1.0
  9
$DIMGAP
 40
0.5
  9
$DIMJUST
 70
     0
  9
$DIMSD1
 70
     0
  9
$DIMSD2
 70
     0
  9
$DIMTOLJ
 70
     1
  9
$DIMTZIN
 70
     0
  9
$DIMALTZ
 70
     0
  9
$DIMALTTZ
 70
     0
  9
$DIMUPT
 70
     0
  9
$DIMDEC
 70
     0
  9
$DIMTDEC
 70
     0
  9
$DIMALTU
 70
     2
  9
$DIMALTTD
 70
     2
  9
$DIMTXSTY
  7
ゴシック
  9
$DIMAUNIT
 70
     1
  9
$DIMADEC
 70
     2
  9
$DIMALTRND
 40
0.0
  9
$DIMAZIN
 70
     0
  9
$DIMDSEP
 70
    46
  9
$DIMATFIT
 70
     0
  9
$DIMFRAC
 70
     0
  9
$DIMLDRBLK
  1
Open
  9
$DIMLUNIT
 70
     2
  9
$DIMLWD
 70
    -2
  9
$DIMLWE
 70
    -1
  9
$DIMTMOVE
 70
     2
  9
$DIMFXL
 40
1.0
  9
$DIMFXLON
 70
     0
  9
$DIMJOGANG
 40
0.7853981633974483
  9
$DIMTFILL
 70
     0
  9
$DIMTFILLCLR
 70
     0
  9
$DIMARCSYM
 70
     0
  9
$DIMLTYPE
  6

  9
$DIMLTEX1
  6

  9
$DIMLTEX2
  6

  9
$LUNITS
 70
     2
  9
$LUPREC
 70
     4
  9
$SKETCHINC
 40
0.1
  9
$FILLETRAD
 40
0.0
  9
$AUNITS
 70
     0
  9
$AUPREC
 70
     0
  9
$MENU
  1
.
  9
$ELEVATION
 40
0.0
  9
$PELEVATION
 40
0.0
  9
$THICKNESS
 40
0.0
  9
$LIMCHECK
 70
     0
  9
$CHAMFERA
 40
0.0
  9
$CHAMFERB
 40
0.0
  9
$CHAMFERC
 40
0.0
  9
$CHAMFERD
 40
0.0
  9
$SKPOLY
 70
     0
  9
$TDCREATE
 40
2457322.399828114
  9
$TDUCREATE
 40
2457322.024828114
  9
$TDUPDATE
 40
2457357.345079294
  9
$TDUUPDATE
 40
2457356.970079294
  9
$TDINDWG
 40
0.1569543519
  9
$TDUSRTIMER
 40
0.1569453241
  9
$USRTIMER
 70
     1
  9
$ANGBASE
 50
0.0
  9
$ANGDIR
 70
     0
  9
$PDMODE
 70
     0
  9
$PDSIZE
 40
40.0
  9
$PLINEWID
 40
0.0
  9
$SPLFRAME
 70
     0
  9
$SPLINETYPE
 70
     6
  9
$SPLINESEGS
 70
     8
  9
$HANDSEED
  5
6960F
  9
$SURFTAB1
 70
     6
  9
$SURFTAB2
 70
     6
  9
$SURFTYPE
 70
     6
  9
$SURFU
 70
     6
  9
$SURFV
 70
     6
  9
$UCSBASE
  2

  9
$UCSNAME
  2

  9
$UCSORG
 10
0.0
 20
0.0
 30
0.0
  9
$UCSXDIR
 10
1.0
 20
0.0
 30
0.0
  9
$UCSYDIR
 10
0.0
 20
1.0
 30
0.0
  9
$UCSORTHOREF
  2

  9
$UCSORTHOVIEW
 70
     0
  9
$UCSORGTOP
 10
0.0
 20
0.0
 30
0.0
  9
$UCSORGBOTTOM
 10
0.0
 20
0.0
 30
0.0
  9
$UCSORGLEFT
 10
0.0
 20
0.0
 30
0.0
  9
$UCSORGRIGHT
 10
0.0
 20
0.0
 30
0.0
  9
$UCSORGFRONT
 10
0.0
 20
0.0
 30
0.0
  9
$UCSORGBACK
 10
0.0
 20
0.0
 30
0.0
  9
$PUCSBASE
  2

  9
$PUCSNAME
  2

  9
$PUCSORG
 10
0.0
 20
0.0
 30
0.0
  9
$PUCSXDIR
 10
1.0
 20
0.0
 30
0.0
  9
$PUCSYDIR
 10
0.0
 20
1.0
 30
0.0
  9
$PUCSORTHOREF
  2

  9
$PUCSORTHOVIEW
 70
     0
  9
$PUCSORGTOP
 10
0.0
 20
0.0
 30
0.0
  9
$PUCSORGBOTTOM
 10
0.0
 20
0.0
 30
0.0
  9
$PUCSORGLEFT
 10
0.0
 20
0.0
 30
0.0
  9
$PUCSORGRIGHT
 10
0.0
 20
0.0
 30
0.0
  9
$PUCSORGFRONT
 10
0.0
 20
0.0
 30
0.0
  9
$PUCSORGBACK
 10
0.0
 20
0.0
 30
0.0
  9
$USERI1
 70
     0
  9
$USERI2
 70
     0
  9
$USERI3
 70
     0
  9
$USERI4
 70
     0
  9
$USERI5
 70
     0
  9
$USERR1
 40
0.0
  9
$USERR2
 40
0.0
  9
$USERR3
 40
0.0
  9
$USERR4
 40
0.0
  9
$USERR5
 40
0.0
  9
$WORLDVIEW
 70
     1
  9
$SHADEDGE
 70
     3
  9
$SHADEDIF
 70
    70
  9
$TILEMODE
 70
     1
  9
$MAXACTVP
 70
    64
  9
$PINSBASE
 10
0.0
 20
0.0
 30
0.0
  9
$PLIMCHECK
 70
     0
  9
$PEXTMIN
 10
1.000000000000000E+20
 20
1.000000000000000E+20
 30
1.000000000000000E+20
  9
$PEXTMAX
 10
-1.000000000000000E+20
 20
-1.000000000000000E+20
 30
-1.000000000000000E+20
  9
$PLIMMIN
 10
0.0
 20
0.0
  9
$PLIMMAX
 10
12.0
 20
9.0
  9
$UNITMODE
 70
     0
  9
$VISRETAIN
 70
     0
  9
$PLINEGEN
 70
     0
  9
$PSLTSCALE
 70
     1
  9
$TREEDEPTH
 70
  3020
  9
$CMLSTYLE
  2
STANDARD
  9
$CMLJUST
 70
     0
  9
$CMLSCALE
 40
1.0
  9
$PROXYGRAPHICS
 70
     1
  9
$MEASUREMENT
 70
     0
  9
$CELWEIGHT
370
    -1
  9
$ENDCAPS
280
     0
  9
$JOINSTYLE
280
     0
  9
$LWDISPLAY
290
     0
  9
$INSUNITS
 70
     0
  9
$HYPERLINKBASE
  1

  9
$STYLESHEET
  1
monochrome_T（縮小）補強筋結束青.ctb
  9
$XEDIT
290
     1
  9
$CEPSNTYPE
380
     0
  9
$PSTYLEMODE
290
     1
  9
$FINGERPRINTGUID
  2
{5F082321-0195-11D3-BDFB-0060B0CD5109}
  9
$VERSIONGUID
  2
{8BA44CFB-3813-42A1-931F-EBCA56BE7254}
  9
$EXTNAMES
290
     1
  9
$PSVPSCALE
 40
0.0
  9
$OLESTARTUP
290
     0
  9
$SORTENTS
280
   127
  9
$INDEXCTL
280
     0
  9
$HIDETEXT
280
     0
  9
$XCLIPFRAME
290
     0
  9
$HALOGAP
280
     0
  9
$OBSCOLOR
 70
   257
  9
$OBSLTYPE
280
     0
  9
$INTERSECTIONDISPLAY
280
     0
  9
$INTERSECTIONCOLOR
 70
   257
  9
$DIMASSOC
280
     1
  9
$PROJECTNAME
  1

  9
$CAMERADISPLAY
290
     0
  9
$LENSLENGTH
 40
50.0
  9
$CAMERAHEIGHT
 40
0.0
  9
$STEPSPERSEC
 40
2.0
  9
$STEPSIZE
 40
6.0
  9
$3DDWFPREC
 40
2.0
  9
$PSOLWIDTH
 40
0.25
  9
$PSOLHEIGHT
 40
4.0
  9
$LOFTANG1
 40
1.570796326794896
  9
$LOFTANG2
 40
1.570796326794896
  9
$LOFTMAG1
 40
0.0
  9
$LOFTMAG2
 40
0.0
  9
$LOFTPARAM
 70
     7
  9
$LOFTNORMALS
280
     1
  9
$LATITUDE
 40
37.795
  9
$LONGITUDE
 40
-122.394
  9
$NORTHDIRECTION
 40
0.0
  9
$TIMEZONE
 70
 -8000
  9
$LIGHTGLYPHDISPLAY
280
     1
  9
$TILEMODELIGHTSYNCH
280
     1
  9
$CMATERIAL
347
6282E
  9
$SOLIDHIST
280
     1
  9
$SHOWHIST
280
     1
  9
$DWFFRAME
280
     2
  9
$DGNFRAME
280
     0
  9
$REALWORLDSCALE
290
     1
  9
$INTERFERECOLOR
 62
     1
  9
$INTERFEREOBJVS
345
62850
  9
$INTERFEREVPVS
346
6284D
  9
$CSHADOW
280
     0
  9
$SHADOWPLANELOCATION
 40
0.0
  0
ENDSEC
  0
SECTION
  2
CLASSES
  0
CLASS
  1
ACDBDICTIONARYWDFLT
  2
AcDbDictionaryWithDefault
  3
ObjectDBX Classes
 90
        0
 91
        1
280
     0
281
     0
  0
CLASS
  1
MATERIAL
  2
AcDbMaterial
  3
ObjectDBX Classes
 90
     1153
 91
        3
280
     0
281
     0
  0
CLASS
  1
VISUALSTYLE
  2
AcDbVisualStyle
  3
ObjectDBX Classes
 90
     4095
 91
       16
280
     0
281
     0
  0
CLASS
  1
TABLESTYLE
  2
AcDbTableStyle
  3
ObjectDBX Classes
 90
     4095
 91
        1
280
     0
281
     0
  0
CLASS
  1
SCALE
  2
AcDbScale
  3
ObjectDBX Classes
 90
     1153
 91
      362
280
     0
281
     0
  0
CLASS
  1
MLEADERSTYLE
  2
AcDbMLeaderStyle
  3
ACDB_MLEADERSTYLE_CLASS
 90
     4095
 91
        1
280
     0
281
     0
  0
CLASS
  1
DICTIONARYVAR
  2
AcDbDictionaryVar
  3
ObjectDBX Classes
 90
        0
 91
        8
280
     0
281
     0
  0
CLASS
  1
CELLSTYLEMAP
  2
AcDbCellStyleMap
  3
ObjectDBX Classes
 90
     1152
 91
        4
280
     0
281
     0
  0
CLASS
  1
SORTENTSTABLE
  2
AcDbSortentsTable
  3
ObjectDBX Classes
 90
        0
 91
        9
280
     0
281
     0
  0
CLASS
  1
PLOTSETTINGS
  2
AcDbPlotSettings
  3
ObjectDBX Classes
 90
        0
 91
        6
280
     0
281
     0
  0
CLASS
  1
IMAGEDEF
  2
AcDbRasterImageDef
  3
ISM
 90
        0
 91
        2
280
     0
281
     0
  0
ENDSEC
  0
SECTION
  2
TABLES
  0
TABLE
  2
VPORT
  5
190
330
0
100
AcDbSymbolTable
 70
     1
  0
VPORT
  5
191
330
190
100
AcDbSymbolTableRecord
100
AcDbViewportTableRecord
  2
*ACTIVE
 70
     0
 10
0.0
 20
0.0
 11
1.0
 21
1.0
 12
12316.10850016356
 22
4200.000019557772
 13
0.0
 23
0.0
 14
1.0
 24
1.0
 15
0.0
 25
0.0
 16
0.0
 26
0.0
 36
1.0
 17
0.0
 27
0.0
 37
0.0
 40
4485.157008316491
 41
1.534078212290502
 42
50.0
 43
0.0
 44
0.0
 50
0.0
 51
0.0
 71
     0
 72
  1000
 73
     1
 74
     1
 75
     0
 76
     0
 77
     0
 78
     0
281
     0
 65
     1
110
0.0
120
0.0
130
0.0
111
1.0
121
0.0
131
0.0
112
0.0
122
1.0
132
0.0
 79
     0
146
0.0
348
6284C
 60
     3
 61
     5
292
     1
282
     1
141
0.0
142
0.0
 63
   250
421
  3355443
  0
ENDTAB
  0
TABLE
  2
LTYPE
  5
1F4
330
0
100
AcDbSymbolTable
 70
     4
  0
LTYPE
  5
1F5
330
1F4
100
AcDbSymbolTableRecord
100
AcDbLinetypeTableRecord
  2
BYBLOCK
 70
     0
  3

 72
    65
 73
     0
 40
0.0
  0
LTYPE
  5
1F6
330
1F4
100
AcDbSymbolTableRecord
100
AcDbLinetypeTableRecord
  2
BYLAYER
 70
     0
  3

 72
    65
 73
     0
 40
0.0
  0
LTYPE
  5
1F7
330
1F4
100
AcDbSymbolTableRecord
100
AcDbLinetypeTableRecord
  2
CONTINUOUS
 70
     0
  3
SolidLine
 72
    65
 73
     0
 40
0.0
  0
LTYPE
  5
628E2
330
1F4
100
AcDbSymbolTableRecord
100
AcDbLinetypeTableRecord
  2
一点鎖線(短)
 70
     0
  3
一点鎖線(短)
 72
    65
 73
     4
 40
13.0
 49
10.0
 74
     0
 49
-1.0
 74
     0
 49
1.0
 74
     0
 49
-1.0
 74
     0
  0
LTYPE
  5
62A24
330
1F4
100
AcDbSymbolTableRecord
100
AcDbLinetypeTableRecord
  2
一点鎖線
 70
     0
  3
 ----------     -     ----------
 72
    65
 73
     4
 40
8.099999999999999
 49
6.0
 74
     0
 49
-0.8
 74
     0
 49
0.5
 74
     0
 49
-0.8
 74
     0
  0
LTYPE
  5
62A25
330
1F4
100
AcDbSymbolTableRecord
100
AcDbLinetypeTableRecord
  2
破線(短)
 70
     0
  3
破線(短)
 72
    65
 73
     2
 40
4.0
 49
2.0
 74
     0
 49
-2.0
 74
     0
  0
ENDTAB
  0
TABLE
  2
LAYER
  5
409
102
{ACAD_XDICTIONARY
360
62B8D
102
}
330
0
100
AcDbSymbolTable
 70
    11
  0
LAYER
  5
40A
102
{ACAD_XDICTIONARY
360
62885
102
}
330
409
100
AcDbSymbolTableRecord
100
AcDbLayerTableRecord
  2
0
 70
     0
 62
     7
  6
CONTINUOUS
370
    -3
390
6282C
347
6283E
  0
LAYER
  5
628D1
330
409
100
AcDbSymbolTableRecord
100
AcDbLayerTableRecord
  2
Defpoints
 70
     0
 62
   252
  6
CONTINUOUS
290
     0
370
    -3
390
6282C
347
6283E
  0
LAYER
  5
62A26
102
{ACAD_XDICTIONARY
360
62A27
102
}
330
409
100
AcDbSymbolTableRecord
100
AcDbLayerTableRecord
  2
00枠
 70
     0
 62
     4
  6
CONTINUOUS
370
    -3
390
6282C
347
6283E
  0
LAYER
  5
62A28
102
{ACAD_XDICTIONARY
360
62A29
102
}
330
409
100
AcDbSymbolTableRecord
100
AcDbLayerTableRecord
  2
00文字
 70
     0
 62
     7
  6
CONTINUOUS
370
    -3
390
6282C
347
6283E
  0
LAYER
  5
62A2A
102
{ACAD_XDICTIONARY
360
62A2B
102
}
330
409
100
AcDbSymbolTableRecord
100
AcDbLayerTableRecord
  2
00構造物
 70
     0
 62
     6
  6
CONTINUOUS
370
    -3
390
6282C
347
6283E
  0
LAYER
  5
62A2C
102
{ACAD_XDICTIONARY
360
62A2D
102
}
330
409
100
AcDbSymbolTableRecord
100
AcDbLayerTableRecord
  2
00寸法
 70
     0
 62
     4
  6
CONTINUOUS
370
    -3
390
6282C
347
6283E
  0
LAYER
  5
62A2E
102
{ACAD_XDICTIONARY
360
62A2F
102
}
330
409
100
AcDbSymbolTableRecord
100
AcDbLayerTableRecord
  2
00補助線
 70
     0
 62
     4
  6
CONTINUOUS
370
    -3
390
6282C
347
6283E
  0
LAYER
  5
62A30
330
409
100
AcDbSymbolTableRecord
100
AcDbLayerTableRecord
  2
01アンカー
 70
     0
 62
     7
  6
CONTINUOUS
370
    -3
390
6282C
347
6283E
1001
AcAecLayerStandard
1000

1000

  0
LAYER
  5
62A31
330
409
100
AcDbSymbolTableRecord
100
AcDbLayerTableRecord
  2
02FEP
 70
     0
 62
     3
  6
CONTINUOUS
370
    -3
390
6282C
347
6283E
1001
AcAecLayerStandard
1000

1000

  0
LAYER
  5
62A32
330
409
100
AcDbSymbolTableRecord
100
AcDbLayerTableRecord
  2
03IV
 70
     0
 62
    30
  6
CONTINUOUS
370
    -3
390
6282C
347
6283E
1001
AcAecLayerStandard
1000

1000

  0
LAYER
  5
68A71
102
{ACAD_XDICTIONARY
360
68A72
102
}
330
409
100
AcDbSymbolTableRecord
100
AcDbLayerTableRecord
  2
04文字
 70
     0
 62
     7
  6
CONTINUOUS
370
    -3
390
6282C
347
6283E
  0
ENDTAB
  0
TABLE
  2
STYLE
  5
200
330
0
100
AcDbSymbolTable
 70
     3
  0
STYLE
  5
201
330
200
100
AcDbSymbolTableRecord
100
AcDbTextStyleTableRecord
  2
STANDARD
 70
     0
 40
0.0
 41
1.0
 50
0.0
 71
     0
 42
0.0
  3
txt.shx
  4
extfont.shx
  0
STYLE
  5
204
330
200
100
AcDbSymbolTableRecord
100
AcDbTextStyleTableRecord
  2
_Gothic_
 70
     0
 40
1.0
 41
1.0
 50
0.0
 71
     0
 42
10.0
  3

  4

1001
ACAD
1000
MS Gothic
1071
    32817
  0
STYLE
  5
62A36
330
200
100
AcDbSymbolTableRecord
100
AcDbTextStyleTableRecord
  2
ゴシック
 70
     0
 40
0.0
 41
1.0
 50
0.0
 71
     0
 42
2.5
  3

  4

1001
ACAD
1000
MS Gothic
1071
    32817
  0
ENDTAB
  0
TABLE
  2
VIEW
  5
206
330
0
100
AcDbSymbolTable
 70
     0
  0
ENDTAB
  0
TABLE
  2
UCS
  5
207
330
0
100
AcDbSymbolTable
 70
     0
  0
ENDTAB
  0
TABLE
  2
APPID
  5
208
330
0
100
AcDbSymbolTable
 70
    17
  0
APPID
  5
209
330
208
100
AcDbSymbolTableRecord
100
AcDbRegAppTableRecord
  2
ACAD
 70
     0
  0
APPID
  5
6287E
330
208
100
AcDbSymbolTableRecord
100
AcDbRegAppTableRecord
  2
ACAD_MLEADERVER
 70
     0
  0
APPID
  5
628C6
330
208
100
AcDbSymbolTableRecord
100
AcDbRegAppTableRecord
  2
ACAD_PSEXT
 70
     0
  0
APPID
  5
628D5
330
208
100
AcDbSymbolTableRecord
100
AcDbRegAppTableRecord
  2
AcadAnnotative
 70
     0
  0
APPID
  5
62953
330
208
100
AcDbSymbolTableRecord
100
AcDbRegAppTableRecord
  2
ACAD_EXEMPT_FROM_CAD_STANDARDS
 70
     0
  0
APPID
  5
62A42
330
208
100
AcDbSymbolTableRecord
100
AcDbRegAppTableRecord
  2
ACAD_DSTYLE_DIMJAG
 70
     0
  0
APPID
  5
62A43
330
208
100
AcDbSymbolTableRecord
100
AcDbRegAppTableRecord
  2
ACAD_DSTYLE_DIMTALN
 70
     0
  0
APPID
  5
62A44
330
208
100
AcDbSymbolTableRecord
100
AcDbRegAppTableRecord
  2
ACAD_DSTYLE_DIMBREAK
 70
     0
  0
APPID
  5
62A45
330
208
100
AcDbSymbolTableRecord
100
AcDbRegAppTableRecord
  2
AcAecLayerStandard
 70
     0
  0
APPID
  5
62A46
330
208
100
AcDbSymbolTableRecord
100
AcDbRegAppTableRecord
  2
ACAD_DSTYLE_DIMRADIAL_EXTENSION
 70
     0
  0
APPID
  5
62A47
330
208
100
AcDbSymbolTableRecord
100
AcDbRegAppTableRecord
  2
ACAD_DSTYLE_DIMJOGGED_JOGANGLE_SYMBOL
 70
     0
  0
APPID
  5
62A48
330
208
100
AcDbSymbolTableRecord
100
AcDbRegAppTableRecord
  2
PE_URL
 70
     0
  0
APPID
  5
62A49
330
208
100
AcDbSymbolTableRecord
100
AcDbRegAppTableRecord
  2
ACAD_DSTYLE_DIMEXT_ENABLED
 70
     0
  0
APPID
  5
62A4A
330
208
100
AcDbSymbolTableRecord
100
AcDbRegAppTableRecord
  2
ACAD_DSTYLE_DIMEXT_LENGTH
 70
     0
  0
APPID
  5
62A4B
330
208
100
AcDbSymbolTableRecord
100
AcDbRegAppTableRecord
  2
AcadAnnoPO
 70
     0
  0
APPID
  5
68A74
330
208
100
AcDbSymbolTableRecord
100
AcDbRegAppTableRecord
  2
AcDbDynamicBlockGUID
 70
     0
  0
APPID
  5
68A75
330
208
100
AcDbSymbolTableRecord
100
AcDbRegAppTableRecord
  2
AcDbBlockRepETag
 70
     0
  0
ENDTAB
  0
TABLE
  2
DIMSTYLE
  5
403
330
0
100
AcDbSymbolTable
 70
     2
100
AcDbDimStyleTable
 71
     1
340
62A38
  0
DIMSTYLE
105
628D3
330
403
100
AcDbSymbolTableRecord
100
AcDbDimStyleTableRecord
  2
Standard
 70
     0
340
201
  0
DIMSTYLE
105
62A38
102
{ACAD_REACTORS
330
684AE
330
684AF
330
684B1
330
6859D
330
68593
330
685FE
330
68601
330
687E7
330
687F1
330
687F3
330
6888F
102
}
330
403
100
AcDbSymbolTableRecord
100
AcDbDimStyleTableRecord
  2
15
 70
     0
 40
15.0
 41
3.0
 42
2.5
 43
8.0
 44
1.0
 73
     0
 74
     0
 77
     1
140
3.5
147
0.5
174
     1
179
     2
271
     0
272
     0
275
     1
279
     2
289
     0
340
62A36
341
62A1A
342
62A1A
372
    -1
1001
ACAD_DSTYLE_DIMBREAK
1070
   391
1040
0.125
1001
ACAD_DSTYLE_DIMJAG
1070
   388
1040
1.5
1001
ACAD_DSTYLE_DIMTALN
1070
   392
1070
     0
  0
ENDTAB
  0
TABLE
  2
BLOCK_RECORD
  5
405
330
0
100
AcDbSymbolTable
 70
    19
  0
BLOCK_RECORD
  5
406
102
{ACAD_XDICTIONARY
360
628DB
102
}
330
405
100
AcDbSymbolTableRecord
100
AcDbBlockTableRecord
  2
*MODEL_SPACE
340
62881
 70
     0
280
     1
281
     0
  0
BLOCK_RECORD
  5
407
330
405
100
AcDbSymbolTableRecord
100
AcDbBlockTableRecord
  2
*PAPER_SPACE
340
62882
 70
     0
280
     1
281
     0
  0
BLOCK_RECORD
  5
62A1A
330
405
100
AcDbSymbolTableRecord
100
AcDbBlockTableRecord
  2
_Open
340
0
310
2800000020000000200000000100080000000000000400000000000000000000000000000000000000000000000080000080000000808000800000008000800080800000C0C0C000C0DCC000F0CAA6000020400000206000002080000020A0000020C0000020E00000400000004020000040400000406000004080000040A0
310
000040C0000040E00000600000006020000060400000606000006080000060A0000060C0000060E00000800000008020000080400000806000008080000080A0000080C0000080E00000A0000000A0200000A0400000A0600000A0800000A0A00000A0C00000A0E00000C0000000C0200000C0400000C0600000C0800000C0
310
A00000C0C00000C0E00000E0000000E0200000E0400000E0600000E0800000E0A00000E0C00000E0E00040000000400020004000400040006000400080004000A0004000C0004000E00040200000402020004020400040206000402080004020A0004020C0004020E000404000004040200040404000404060004040800040
310
40A0004040C0004040E00040600000406020004060400040606000406080004060A0004060C0004060E00040800000408020004080400040806000408080004080A0004080C0004080E00040A0000040A0200040A0400040A0600040A0800040A0A00040A0C00040A0E00040C0000040C0200040C0400040C0600040C08000
310
40C0A00040C0C00040C0E00040E0000040E0200040E0400040E0600040E0800040E0A00040E0C00040E0E00080000000800020008000400080006000800080008000A0008000C0008000E00080200000802020008020400080206000802080008020A0008020C0008020E00080400000804020008040400080406000804080
310
008040A0008040C0008040E00080600000806020008060400080606000806080008060A0008060C0008060E00080800000808020008080400080806000808080008080A0008080C0008080E00080A0000080A0200080A0400080A0600080A0800080A0A00080A0C00080A0E00080C0000080C0200080C0400080C0600080C0
310
800080C0A00080C0C00080C0E00080E0000080E0200080E0400080E0600080E0800080E0A00080E0C00080E0E000C0000000C0002000C0004000C0006000C0008000C000A000C000C000C000E000C0200000C0202000C0204000C0206000C0208000C020A000C020C000C020E000C0400000C0402000C0404000C0406000C0
310
408000C040A000C040C000C040E000C0600000C0602000C0604000C0606000C0608000C060A000C060C000C060E000C0800000C0802000C0804000C0806000C0808000C080A000C080C000C080E000C0A00000C0A02000C0A04000C0A06000C0A08000C0A0A000C0A0C000C0A0E000C0C00000C0C02000C0C04000C0C06000
310
C0C08000C0C0A000F0FBFF00A4A0A000808080000000FF0000FF000000FFFF00FF000000FF00FF00FFFF0000FFFFFF00FFFFFFFFFFFFFFFFFFFFFFFFFFFFFFFFFFFFFFFFFFFFFFFFFFFFFFFFFFFFFFFFFFFFFFFFFFFFFFFFFFFFFFFFFFFFFFFFFFFFFFFFFFFFFFFFFFFFFFFFFFFFFFFFFFFFFFFFFFFFFFFFFFFFFFFFFFFFFF
310
FFFFFFFFFFFFFFFFFFFFFFFFFFFFFFFFFFFFFFFFFFFFFFFFFFFFFFFFFFFFFFFFFFFFFFFFFFFFFFFFFFFFFFFFFFFFFFFFFFFFFFFFFFFFFFFFFFFFFFFFFFFFFFFFFFFFFFFFFFFFFFFFFFFFFFFFFFFFFFFFFFFFFFFFFFFFFFFFFFFFFFFFFFFFFFFFFFFFFFFFFFFFFFFFFFFFFFFFFFFFFFFFFFFFFFFFFFFFFFFFFFFFFFFFFFFFFF
310
FFFFFFFFFFFFFFFFFFFFFFFFFFFFFFFFFFFFFFFFFFFFFFFFFFFFFFFFFFFFFFFFFFFFFFFFFFFFFFFFFFFFFFFFFFFFFFFFFFFFFFFFFFFFFFFFFFFFFFFFFFFFFFFFFFFFFFFFFFFFFFFFFFFFFFFFFFFFFFFFFFFFFFFFFFFFFFFFFFFFFFFFFFFFFFFFFFFFFFFFFFFFFFFFFFFFFFFFFFFFFFFFFFFFFFFFFFFFFFFFFFFFFFFFFFFFFF
310
FFFFFFFFFFFFFFFFFFFFFFFFFFFFFFFFFFFFFFFF000000FFFFFFFFFFFFFFFFFFFFFFFFFFFFFFFFFFFFFFFFFFFFFFFFFFFFFFFFFFFFFFFF000000000000FFFFFFFFFFFFFFFFFFFFFFFFFFFFFFFFFFFFFFFFFFFFFFFFFFFFFFFFFFFFFFFF000000000000FFFFFFFFFFFFFFFFFFFFFFFFFFFFFFFFFFFFFFFFFFFFFFFFFFFFFFFF
310
FFFFFFFF000000000000FFFFFFFFFFFFFFFFFFFFFFFFFFFFFFFFFFFFFFFFFFFFFFFFFFFFFFFFFFFFFFFF000000000000FFFFFFFFFF000000000000000000000000000000000000000000000000000000000000FFFFFFFFFFFFFFFFFFFFFFFFFFFFFFFFFFFFFFFFFF00000000000000FFFFFFFFFFFFFFFFFFFFFFFFFFFFFFFF
310
FF0000000000000000FFFFFFFFFFFFFFFFFFFFFFFFFFFFFFFFFF00000000000000FFFFFFFFFFFFFFFFFFFFFFFFFFFFFFFFFFFFFFFFFF00000000FFFFFFFFFFFFFFFFFFFFFFFFFFFFFFFFFFFFFFFFFFFFFFFFFFFFFFFFFFFFFFFFFFFFFFFFFFFFFFFFFFFFFFFFFFFFFFFFFFFFFFFFFFFFFFFFFFFFFFFFFFFFFFFFFFFFFFFFFF
310
FFFFFFFFFFFFFFFFFFFFFFFFFFFFFFFFFFFFFFFFFFFFFFFFFFFFFFFFFFFFFFFFFFFFFFFFFFFFFFFFFFFFFFFFFFFFFFFFFFFFFFFFFFFFFFFFFFFFFFFFFFFFFFFFFFFFFFFFFFFFFFFFFFFFFFFFFFFFFFFFFFFFFFFFFFFFFFFFFFFFFFFFFFFFFFFFFFFFFFFFFFFFFFFFFFFFFFFFFFFFFFFFFFFFFFFFFFFFFFFFFFFFFFFFFFFFFF
310
FFFFFFFFFFFFFFFFFFFFFFFFFFFFFFFFFFFFFFFFFFFFFFFFFFFFFFFFFFFFFFFFFFFFFFFFFFFFFFFFFFFFFFFFFFFFFFFFFFFFFFFFFFFFFFFFFFFFFFFFFFFFFFFFFFFFFFFFFFFFFFFFFFFFFFFFFFFFFFFFFFFFFFFFFFFFFFFFFFFFFFFFFFFFFFFFFFFFFFFFFFFFFFFFFFFFFFFFFFFFFFFFFFFFFFFFFFFFFFFFFFFFFFFFFFFFFF
310
FFFFFFFFFFFFFFFFFFFFFFFFFFFFFFFFFFFFFFFFFFFFFFFFFFFFFFFFFFFFFFFFFFFFFFFFFFFFFFFFFFFFFFFFFFFFFFFFFFFFFFFFFFFFFFFF
102
{BLKREFS
331
68911
331
68912
331
6891A
331
6891B
331
68AA1
331
68AA2
331
68AAA
331
68AAB
331
68AC6
331
68AC7
331
68ACF
331
68AD0
331
69551
331
69552
331
69593
331
69594
331
695A6
331
695A7
331
695B0
331
695B1
102
}
 70
     0
280
     1
281
     0
  0
BLOCK_RECORD
  5
65595
102
{ACAD_XDICTIONARY
360
65596
102
}
330
405
100
AcDbSymbolTableRecord
100
AcDbBlockTableRecord
  2
4M24P300
340
0
102
{BLKREFS
331
6859E
331
687F0
102
}
 70
     0
280
     1
281
     0
  0
BLOCK_RECORD
  5
65695
102
{ACAD_XDICTIONARY
360
65696
102
}
330
405
100
AcDbSymbolTableRecord
100
AcDbBlockTableRecord
  2
4M24P300L500
340
0
102
{BLKREFS
331
685FF
102
}
 70
     0
280
     1
281
     0
  0
BLOCK_RECORD
  5
656FE
102
{ACAD_XDICTIONARY
360
656FF
102
}
330
405
100
AcDbSymbolTableRecord
100
AcDbBlockTableRecord
  2
A$C306E20C6
340
0
102
{BLKREFS
331
656E2
331
656E3
331
656EF
331
656F0
331
66E4C
331
66E4D
331
66E59
331
66E5A
102
}
 70
     0
280
     1
281
     0
  0
BLOCK_RECORD
  5
6571A
102
{ACAD_XDICTIONARY
360
6571B
102
}
330
405
100
AcDbSymbolTableRecord
100
AcDbBlockTableRecord
  2
M16
340
0
102
{BLKREFS
331
65726
331
65727
331
6572D
331
6572E
102
}
 70
     0
280
     1
281
     0
  0
BLOCK_RECORD
  5
65722
102
{ACAD_XDICTIONARY
360
65723
102
}
330
405
100
AcDbSymbolTableRecord
100
AcDbBlockTableRecord
  2
A$C16D64A1D
340
0
102
{BLKREFS
331
6859F
102
}
 70
     0
280
     1
281
     0
  0
BLOCK_RECORD
  5
65729
102
{ACAD_XDICTIONARY
360
6572A
102
}
330
405
100
AcDbSymbolTableRecord
100
AcDbBlockTableRecord
  2
A$C07505C29
340
0
102
{BLKREFS
331
684BD
102
}
 70
     0
280
     1
281
     0
  0
BLOCK_RECORD
  5
66DFF
102
{ACAD_XDICTIONARY
360
66E00
102
}
330
405
100
AcDbSymbolTableRecord
100
AcDbBlockTableRecord
  2
4M24P250L500
340
0
102
{BLKREFS
331
684BC
102
}
 70
     0
280
     1
281
     0
  0
BLOCK_RECORD
  5
684BE
330
405
100
AcDbSymbolTableRecord
100
AcDbBlockTableRecord
  2
*D8
340
0
 70
     0
280
     1
281
     0
  0
BLOCK_RECORD
  5
684CA
330
405
100
AcDbSymbolTableRecord
100
AcDbBlockTableRecord
  2
*D9
340
0
 70
     0
280
     1
281
     0
  0
BLOCK_RECORD
  5
684D6
330
405
100
AcDbSymbolTableRecord
100
AcDbBlockTableRecord
  2
*D10
340
0
 70
     0
280
     1
281
     0
  0
BLOCK_RECORD
  5
685A0
330
405
100
AcDbSymbolTableRecord
100
AcDbBlockTableRecord
  2
*D11
340
0
 70
     0
280
     1
281
     0
  0
BLOCK_RECORD
  5
685AC
330
405
100
AcDbSymbolTableRecord
100
AcDbBlockTableRecord
  2
*D12
340
0
 70
     0
280
     1
281
     0
  0
BLOCK_RECORD
  5
68627
330
405
100
AcDbSymbolTableRecord
100
AcDbBlockTableRecord
  2
*D13
340
0
 70
     0
280
     1
281
     0
  0
BLOCK_RECORD
  5
68633
330
405
100
AcDbSymbolTableRecord
100
AcDbBlockTableRecord
  2
*D14
340
0
 70
     0
280
     1
281
     0
  0
BLOCK_RECORD
  5
687F5
330
405
100
AcDbSymbolTableRecord
100
AcDbBlockTableRecord
  2
*D15
340
0
 70
     0
280
     1
281
     0
  0
BLOCK_RECORD
  5
6880D
330
405
100
AcDbSymbolTableRecord
100
AcDbBlockTableRecord
  2
*D16
340
0
 70
     0
280
     1
281
     0
  0
BLOCK_RECORD
  5
68890
330
405
100
AcDbSymbolTableRecord
100
AcDbBlockTableRecord
  2
*D17
340
0
 70
     0
280
     1
281
     0
  0
BLOCK_RECORD
  5
68A2F
102
{ACAD_XDICTIONARY
360
68A30
102
}
330
405
100
AcDbSymbolTableRecord
100
AcDbBlockTableRecord
  2
A$C00D50416
340
0
102
{BLKREFS
331
68A89
102
}
 70
     0
280
     1
281
     0
1001
AcDbDynamicBlockGUID
1000
{81D40633-749D-4839-95B0-BAFA72D6D90B}
1001
AcDbBlockRepETag
1070
     1
1071
       62
  0
ENDTAB
  0
ENDSEC
  0
SECTION
  2
BLOCKS
  0
BLOCK
  5
415
330
406
100
AcDbEntity
  8
0
100
AcDbBlockBegin
  2
*MODEL_SPACE
 70
     0
 10
0.0
 20
0.0
 30
0.0
  3
*MODEL_SPACE
  1

  0
ENDBLK
  5
416
330
406
100
AcDbEntity
  8
0
100
AcDbBlockEnd
  0
BLOCK
  5
417
330
407
100
AcDbEntity
 67
     1
  8
0
100
AcDbBlockBegin
  2
*PAPER_SPACE
 70
     0
 10
0.0
 20
0.0
 30
0.0
  3
*PAPER_SPACE
  1

  0
ENDBLK
  5
418
330
407
100
AcDbEntity
 67
     1
  8
0
100
AcDbBlockEnd
  0
BLOCK
  5
62A1B
330
62A1A
100
AcDbEntity
  8
0
100
AcDbBlockBegin
  2
_Open
 70
     0
 10
0.0
 20
0.0
 30
0.0
  3
_Open
  1

  0
LINE
  5
62A1C
330
62A1A
100
AcDbEntity
  8
0
  6
ByBlock
 62
     0
370
    -2
100
AcDbLine
 10
-1.0
 20
0.1666666666715173
 30
0.0
 11
0.0
 21
0.0
 31
0.0
  0
LINE
  5
62A1D
330
62A1A
100
AcDbEntity
  8
0
  6
ByBlock
 62
     0
370
    -2
100
AcDbLine
 10
-1.0
 20
-0.1666666666715173
 30
0.0
 11
0.0
 21
0.0
 31
0.0
  0
LINE
  5
62A1E
330
62A1A
100
AcDbEntity
  8
0
  6
ByBlock
 62
     0
370
    -2
100
AcDbLine
 10
0.0
 20
0.0
 30
0.0
 11
-1.0
 21
0.0
 31
0.0
  0
ENDBLK
  5
62A1F
330
62A1A
100
AcDbEntity
  8
0
100
AcDbBlockEnd
  0
BLOCK
  5
65598
330
65595
100
AcDbEntity
  8
0
100
AcDbBlockBegin
  2
4M24P300
 70
     0
 10
0.0
 20
0.0
 30
0.0
  3
4M24P300
  1

  0
LINE
  5
65599
330
65595
100
AcDbEntity
  8
01アンカー
  6
ByBlock
100
AcDbLine
 10
129.9999976200051
 20
149.9999971666802
 30
0.0
 11
139.9999973933372
 21
132.6794894835911
 31
0.0
  0
LINE
  5
6559A
330
65595
100
AcDbEntity
  8
01アンカー
  6
ByBlock
100
AcDbLine
 10
159.9999969400014
 20
132.6794894835911
 30
0.0
 11
169.9999967133335
 21
149.9999971666802
 31
0.0
  0
CIRCLE
  5
6559B
330
65595
100
AcDbEntity
  8
01アンカー
  6
ByBlock
100
AcDbCircle
 10
149.9999971666693
 20
149.9999971666802
 30
0.0
 40
21.99999950133333
  0
LINE
  5
6559C
330
65595
100
AcDbEntity
  8
01アンカー
  6
ByBlock
100
AcDbLine
 10
-139.9999973933445
 20
132.6794894835802
 30
0.0
 11
-129.9999976200124
 21
149.9999971666693
 31
0.0
  0
LINE
  5
6559D
330
65595
100
AcDbEntity
  8
01アンカー
  6
ByBlock
100
AcDbLine
 10
-169.9999967133408
 20
149.9999971666693
 30
0.0
 11
-159.9999969400087
 21
132.6794894835802
 31
0.0
  0
CIRCLE
  5
6559E
330
65595
100
AcDbEntity
  8
01アンカー
  6
ByBlock
100
AcDbCircle
 10
-149.9999971666766
 20
149.9999971666693
 30
0.0
 40
21.99999950133333
  0
LINE
  5
6559F
330
65595
100
AcDbEntity
  8
01アンカー
  6
一点鎖線(短)
 62
     4
 48
0.2
100
AcDbLine
 10
-149.9999971666693
 20
111.3484218851372
 30
0.0
 11
-149.9999971666693
 21
188.6515724482014
 31
0.0
  0
LINE
  5
655A0
330
65595
100
AcDbEntity
  8
01アンカー
  6
一点鎖線(短)
 62
     4
 48
0.2
100
AcDbLine
 10
110.991802184828
 20
110.991802184848
 30
0.0
 11
213.034781124712
 21
213.0347811247284
 31
0.0
  0
LINE
  5
655A1
330
65595
100
AcDbEntity
  8
01アンカー
  6
ByBlock
100
AcDbLine
 10
141.5147159847547
 20
158.4852783485748
 30
0.0
 11
158.029434236174
 21
174.999996600005
 31
0.0
  0
LINE
  5
655A2
330
65595
100
AcDbEntity
  8
01アンカー
  6
ByBlock
 48
0.5
100
AcDbLine
 10
207.9827519096725
 20
191.0121895458815
 30
0.0
 11
174.9999965999886
 21
158.0294342361903
 31
0.0
  0
LINE
  5
655A3
330
65595
100
AcDbEntity
  8
01アンカー
  6
ByBlock
100
AcDbLine
 10
174.9999965999959
 20
174.9999966000014
 30
0.0
 11
174.9999965999959
 21
-174.9999965999977
 31
0.0
  0
LINE
  5
655A4
330
65595
100
AcDbEntity
  8
01アンカー
  6
ByBlock
100
AcDbLine
 10
124.9999977333282
 20
-174.9999965999977
 30
0.0
 11
124.9999977333282
 21
174.9999966000014
 31
0.0
  0
LINE
  5
655A5
330
65595
100
AcDbEntity
  8
01アンカー
  6
ByBlock
100
AcDbLine
 10
-124.9999977333354
 20
174.9999966000014
 30
0.0
 11
-124.9999977333354
 21
-174.9999965999977
 31
0.0
  0
LINE
  5
655A6
330
65595
100
AcDbEntity
  8
01アンカー
  6
ByBlock
100
AcDbLine
 10
-174.9999966000032
 20
-174.9999965999977
 30
0.0
 11
-174.9999966000032
 21
174.9999966000014
 31
0.0
  0
LINE
  5
655A7
330
65595
100
AcDbEntity
  8
01アンカー
  6
一点鎖線(短)
 62
     4
 48
0.2
100
AcDbLine
 10
-217.8001134590013
 20
217.8001134590031
 30
0.0
 11
-113.2595790905179
 21
113.2595790905197
 31
0.0
  0
LINE
  5
655A8
330
65595
100
AcDbEntity
  8
01アンカー
  6
ByBlock
100
AcDbLine
 10
-141.7146242949748
 20
158.2853700383694
 30
0.0
 11
-158.0294342361885
 21
174.9999966000014
 31
0.0
  0
LINE
  5
655A9
330
65595
100
AcDbEntity
  8
01アンカー
  6
ByBlock
 48
0.5
100
AcDbLine
 10
-174.9999966000032
 20
158.029434236194
 30
0.0
 11
-207.9827519096943
 21
191.0121895458815
 31
0.0
  0
LINE
  5
655AA
330
65595
100
AcDbEntity
  8
01アンカー
  6
ByBlock
100
AcDbLine
 10
124.9999977333282
 20
-174.9999965999977
 30
0.0
 11
-124.9999977333354
 21
-174.9999965999977
 31
0.0
  0
LINE
  5
655AB
330
65595
100
AcDbEntity
  8
01アンカー
  6
ByBlock
100
AcDbLine
 10
-124.9999977333354
 20
-124.9999977333336
 30
0.0
 11
124.9999977333282
 21
-124.9999977333336
 31
0.0
  0
LINE
  5
655AC
330
65595
100
AcDbEntity
  8
01アンカー
  6
ByBlock
100
AcDbLine
 10
-124.9999977333354
 20
124.9999977333373
 30
0.0
 11
124.9999977333282
 21
124.9999977333336
 31
0.0
  0
LINE
  5
655AD
330
65595
100
AcDbEntity
  8
01アンカー
  6
一点鎖線(短)
 62
     4
 48
0.2
100
AcDbLine
 10
-117.7129174815854
 20
-117.7129174815836
 30
0.0
 11
-217.9719282581864
 21
-217.9719282581846
 31
0.0
  0
LINE
  5
655AE
330
65595
100
AcDbEntity
  8
01アンカー
  6
ByBlock
100
AcDbLine
 10
-124.9999977333354
 20
-174.9999965999977
 30
0.0
 11
-174.9999966000032
 21
-174.9999965999977
 31
0.0
  0
CIRCLE
  5
655AF
330
65595
100
AcDbEntity
  8
01アンカー
  6
ByBlock
100
AcDbCircle
 10
-149.9999971666693
 20
-149.9999971666693
 30
0.0
 40
9.999999773333332
  0
CIRCLE
  5
655B0
330
65595
100
AcDbEntity
  8
01アンカー
  6
ByBlock
100
AcDbCircle
 10
-149.9999971666693
 20
-149.9999971666693
 30
0.0
 40
11.999999728
  0
LINE
  5
655B1
330
65595
100
AcDbEntity
  8
01アンカー
  6
ByBlock
100
AcDbLine
 10
-129.9999976200051
 20
-149.9999971666693
 30
0.0
 11
-139.9999973933372
 21
-132.6794894835802
 31
0.0
  0
LINE
  5
655B2
330
65595
100
AcDbEntity
  8
01アンカー
  6
ByBlock
100
AcDbLine
 10
-139.9999973933372
 20
-132.6794894835802
 30
0.0
 11
-159.9999969400087
 21
-132.6794894835802
 31
0.0
  0
LINE
  5
655B3
330
65595
100
AcDbEntity
  8
01アンカー
  6
ByBlock
100
AcDbLine
 10
-159.9999969400087
 20
-132.6794894835802
 30
0.0
 11
-169.9999967133408
 21
-149.9999971666693
 31
0.0
  0
LINE
  5
655B4
330
65595
100
AcDbEntity
  8
01アンカー
  6
ByBlock
100
AcDbLine
 10
-169.9999967133408
 20
-149.9999971666693
 30
0.0
 11
-159.9999969400087
 21
-167.3205048497621
 31
0.0
  0
LINE
  5
655B5
330
65595
100
AcDbEntity
  8
01アンカー
  6
ByBlock
100
AcDbLine
 10
-159.9999969400087
 20
-167.3205048497621
 30
0.0
 11
-139.9999973933372
 21
-167.3205048497621
 31
0.0
  0
LINE
  5
655B6
330
65595
100
AcDbEntity
  8
01アンカー
  6
ByBlock
100
AcDbLine
 10
-139.9999973933372
 20
-167.3205048497621
 30
0.0
 11
-129.9999976200051
 21
-149.9999971666693
 31
0.0
  0
CIRCLE
  5
655B7
330
65595
100
AcDbEntity
  8
01アンカー
  6
ByBlock
100
AcDbCircle
 10
-149.9999971666693
 20
-149.9999971666693
 30
0.0
 40
21.99999950133333
  0
LINE
  5
655B8
330
65595
100
AcDbEntity
  8
01アンカー
  6
ByBlock
100
AcDbLine
 10
-158.7315946955932
 20
-141.2683996377363
 30
0.0
 11
-174.9999965999959
 21
-158.0294342361867
 31
0.0
  0
LINE
  5
655B9
330
65595
100
AcDbEntity
  8
01アンカー
  6
ByBlock
100
AcDbLine
 10
-158.0294342361885
 20
-174.9999965999977
 30
0.0
 11
-141.7683996264022
 21
-158.2315947069273
 31
0.0
  0
LINE
  5
655BA
330
65595
100
AcDbEntity
  8
01アンカー
  6
ByBlock
 48
0.5
100
AcDbLine
 10
-191.0121895458796
 20
-207.9827519096889
 30
0.0
 11
-158.0294342361885
 21
-174.9999965999977
 31
0.0
  0
LINE
  5
655BB
330
65595
100
AcDbEntity
  8
01アンカー
  6
ByBlock
100
AcDbLine
 10
-207.9827519096871
 20
-191.0121895458778
 30
0.0
 11
-191.0121895458796
 21
-207.9827519096889
 31
0.0
  0
LINE
  5
655BC
330
65595
100
AcDbEntity
  8
01アンカー
  6
ByBlock
 48
0.5
100
AcDbLine
 10
-174.9999965999959
 20
-158.0294342361867
 30
0.0
 11
-207.9827519096871
 21
-191.0121895458778
 31
0.0
  0
LINE
  5
655BD
330
65595
100
AcDbEntity
  8
01アンカー
  6
一点鎖線(短)
 62
     4
 48
0.2
100
AcDbLine
 10
-109.1769850715718
 20
149.9999971666693
 30
0.0
 11
-190.8230092617741
 21
149.9999971666693
 31
0.0
  0
LINE
  5
655BE
330
65595
100
AcDbEntity
  8
01アンカー
  6
ByBlock
100
AcDbLine
 10
-159.9999969400087
 20
167.3205048497584
 30
0.0
 11
-169.9999967133408
 21
149.9999971666693
 31
0.0
  0
LINE
  5
655BF
330
65595
100
AcDbEntity
  8
01アンカー
  6
ByBlock
100
AcDbLine
 10
-139.9999973933445
 20
167.3205048497584
 30
0.0
 11
-159.9999969400087
 21
167.3205048497584
 31
0.0
  0
LINE
  5
655C0
330
65595
100
AcDbEntity
  8
01アンカー
  6
ByBlock
100
AcDbLine
 10
-129.9999976200124
 20
149.9999971666693
 30
0.0
 11
-139.9999973933445
 21
167.3205048497584
 31
0.0
  0
CIRCLE
  5
655C1
330
65595
100
AcDbEntity
  8
01アンカー
  6
ByBlock
100
AcDbCircle
 10
-149.9999971666766
 20
149.9999971666693
 30
0.0
 40
9.999999773333332
  0
CIRCLE
  5
655C2
330
65595
100
AcDbEntity
  8
01アンカー
  6
ByBlock
100
AcDbCircle
 10
-149.9999971666766
 20
149.9999971666693
 30
0.0
 40
11.999999728
  0
LINE
  5
655C3
330
65595
100
AcDbEntity
  8
01アンカー
  6
ByBlock
100
AcDbLine
 10
-174.9999966000032
 20
158.029434236194
 30
0.0
 11
-158.8113797654659
 21
141.8408174016604
 31
0.0
  0
LINE
  5
655C4
330
65595
100
AcDbEntity
  8
01アンカー
  6
ByBlock
100
AcDbLine
 10
139.9999973933372
 20
-132.6794894835875
 30
0.0
 11
129.9999976200051
 21
-149.9999971666766
 31
0.0
  0
LINE
  5
655C5
330
65595
100
AcDbEntity
  8
01アンカー
  6
ByBlock
100
AcDbLine
 10
129.9999976200051
 20
-149.9999971666766
 30
0.0
 11
139.9999973933372
 21
-167.3205048497693
 31
0.0
  0
CIRCLE
  5
655C6
330
65595
100
AcDbEntity
  8
01アンカー
  6
ByBlock
100
AcDbCircle
 10
149.9999971666693
 20
-149.9999971666766
 30
0.0
 40
21.99999950133333
  0
LINE
  5
655C7
330
65595
100
AcDbEntity
  8
01アンカー
  6
一点鎖線(短)
 62
     4
 48
0.2
100
AcDbLine
 10
115.0883469432592
 20
-115.0883469432574
 30
0.0
 11
216.0609449851691
 21
-216.0609449851672
 31
0.0
  0
LINE
  5
655C8
330
65595
100
AcDbEntity
  8
01アンカー
  6
ByBlock
100
AcDbLine
 10
174.9999966000032
 20
-158.0294342361903
 30
0.0
 11
158.4852783485767
 21
-141.5147159847638
 31
0.0
  0
LINE
  5
655C9
330
65595
100
AcDbEntity
  8
01アンカー
  6
ByBlock
 48
0.5
100
AcDbLine
 10
158.0294342361885
 20
-174.9999966000014
 30
0.0
 11
191.0121895458796
 21
-207.9827519096889
 31
0.0
  0
LINE
  5
655CA
330
65595
100
AcDbEntity
  8
01アンカー
  6
ByBlock
100
AcDbLine
 10
174.9999965999959
 20
-174.9999965999977
 30
0.0
 11
124.9999977333282
 21
-174.9999965999977
 31
0.0
  0
CIRCLE
  5
655CB
330
65595
100
AcDbEntity
  8
01アンカー
  6
ByBlock
100
AcDbCircle
 10
149.9999971666693
 20
-149.9999971666766
 30
0.0
 40
9.999999773333332
  0
CIRCLE
  5
655CC
330
65595
100
AcDbEntity
  8
01アンカー
  6
ByBlock
100
AcDbCircle
 10
149.9999971666693
 20
-149.9999971666766
 30
0.0
 40
11.999999728
  0
LINE
  5
655CD
330
65595
100
AcDbEntity
  8
01アンカー
  6
ByBlock
100
AcDbLine
 10
169.9999967133335
 20
-149.9999971666766
 30
0.0
 11
159.9999969400014
 21
-132.6794894835875
 31
0.0
  0
LINE
  5
655CE
330
65595
100
AcDbEntity
  8
01アンカー
  6
ByBlock
100
AcDbLine
 10
159.9999969400014
 20
-132.6794894835875
 30
0.0
 11
139.9999973933372
 21
-132.6794894835875
 31
0.0
  0
LINE
  5
655CF
330
65595
100
AcDbEntity
  8
01アンカー
  6
ByBlock
100
AcDbLine
 10
139.9999973933372
 20
-167.3205048497693
 30
0.0
 11
159.9999969400014
 21
-167.3205048497693
 31
0.0
  0
LINE
  5
655D0
330
65595
100
AcDbEntity
  8
01アンカー
  6
ByBlock
100
AcDbLine
 10
159.9999969400014
 20
-167.3205048497693
 30
0.0
 11
169.9999967133335
 21
-149.9999971666766
 31
0.0
  0
LINE
  5
655D1
330
65595
100
AcDbEntity
  8
01アンカー
  6
ByBlock
100
AcDbLine
 10
141.514715984762
 20
-158.4852783485839
 30
0.0
 11
158.0294342361885
 21
-174.9999966000105
 31
0.0
  0
LINE
  5
655D2
330
65595
100
AcDbEntity
  8
01アンカー
  6
ByBlock
 48
0.5
100
AcDbLine
 10
207.9827519096943
 20
-191.0121895458778
 30
0.0
 11
174.9999966000032
 21
-158.0294342361903
 31
0.0
  0
LINE
  5
655D3
330
65595
100
AcDbEntity
  8
01アンカー
  6
ByBlock
100
AcDbLine
 10
191.0121895458796
 20
-207.9827519096889
 30
0.0
 11
207.9827519096943
 21
-191.0121895458778
 31
0.0
  0
LINE
  5
655D4
330
65595
100
AcDbEntity
  8
01アンカー
  6
ByBlock
100
AcDbLine
 10
139.9999973933372
 20
167.320504849773
 30
0.0
 11
129.9999976200051
 21
149.9999971666802
 31
0.0
  0
LINE
  5
655D5
330
65595
100
AcDbEntity
  8
01アンカー
  6
ByBlock
100
AcDbLine
 10
174.9999965999886
 20
158.0294342361903
 30
0.0
 11
158.4852783485621
 21
141.5147159847674
 31
0.0
  0
CIRCLE
  5
655D6
330
65595
100
AcDbEntity
  8
01アンカー
  6
ByBlock
100
AcDbCircle
 10
149.9999971666693
 20
149.9999971666802
 30
0.0
 40
9.999999773333332
  0
CIRCLE
  5
655D7
330
65595
100
AcDbEntity
  8
01アンカー
  6
ByBlock
100
AcDbCircle
 10
149.9999971666693
 20
149.9999971666802
 30
0.0
 40
11.999999728
  0
LINE
  5
655D8
330
65595
100
AcDbEntity
  8
01アンカー
  6
ByBlock
100
AcDbLine
 10
169.9999967133335
 20
149.9999971666802
 30
0.0
 11
159.9999969400014
 21
167.320504849773
 31
0.0
  0
LINE
  5
655D9
330
65595
100
AcDbEntity
  8
01アンカー
  6
ByBlock
100
AcDbLine
 10
159.9999969400014
 20
167.320504849773
 30
0.0
 11
139.9999973933372
 21
167.320504849773
 31
0.0
  0
LINE
  5
655DA
330
65595
100
AcDbEntity
  8
01アンカー
  6
ByBlock
100
AcDbLine
 10
-124.9999977333354
 20
174.9999966000014
 30
0.0
 11
124.9999977333282
 21
174.9999966000014
 31
0.0
  0
LINE
  5
655DB
330
65595
100
AcDbEntity
  8
01アンカー
  6
ByBlock
100
AcDbLine
 10
-174.9999966000032
 20
174.9999966000014
 30
0.0
 11
-124.9999977333354
 21
174.9999966000014
 31
0.0
  0
LINE
  5
655DC
330
65595
100
AcDbEntity
  8
01アンカー
  6
ByBlock
100
AcDbLine
 10
-159.9999969400087
 20
132.6794894835802
 30
0.0
 11
-139.9999973933445
 21
132.6794894835802
 31
0.0
  0
LINE
  5
655DD
330
65595
100
AcDbEntity
  8
01アンカー
  6
ByBlock
 48
0.5
100
AcDbLine
 10
-191.0121895458796
 20
207.9827519096925
 30
0.0
 11
-158.0294342361885
 21
174.9999966000014
 31
0.0
  0
LINE
  5
655DE
330
65595
100
AcDbEntity
  8
01アンカー
  6
ByBlock
100
AcDbLine
 10
-207.9827519096943
 20
191.0121895458815
 30
0.0
 11
-191.0121895458796
 21
207.9827519096925
 31
0.0
  0
LINE
  5
655DF
330
65595
100
AcDbEntity
  8
01アンカー
  6
ByBlock
 48
0.5
100
AcDbLine
 10
158.029434236174
 20
174.9999966000014
 30
0.0
 11
191.0121895458651
 21
207.9827519096925
 31
0.0
  0
LINE
  5
655E0
330
65595
100
AcDbEntity
  8
01アンカー
  6
ByBlock
100
AcDbLine
 10
124.9999977333282
 20
174.9999966000014
 30
0.0
 11
174.9999965999959
 21
174.9999966000014
 31
0.0
  0
LINE
  5
655E1
330
65595
100
AcDbEntity
  8
01アンカー
  6
ByBlock
100
AcDbLine
 10
139.9999973933372
 20
132.6794894835911
 30
0.0
 11
159.9999969400014
 21
132.6794894835911
 31
0.0
  0
LINE
  5
655E2
330
65595
100
AcDbEntity
  8
01アンカー
  6
ByBlock
100
AcDbLine
 10
191.0121895458651
 20
207.9827519096925
 30
0.0
 11
207.9827519096725
 21
191.0121895458815
 31
0.0
  0
LINE
  5
655E3
330
65595
100
AcDbEntity
  8
01アンカー
  6
一点鎖線(短)
 62
     4
 48
0.2
100
AcDbLine
 10
149.9999971666766
 20
111.3484218851481
 30
0.0
 11
149.9999971666766
 21
188.6515724482124
 31
0.0
  0
LINE
  5
655E4
330
65595
100
AcDbEntity
  8
01アンカー
  6
一点鎖線(短)
 62
     4
 48
0.2
100
AcDbLine
 10
190.8230092617741
 20
149.9999971666802
 30
0.0
 11
109.1769850715718
 21
149.9999971666802
 31
0.0
  0
LINE
  5
655E5
330
65595
100
AcDbEntity
  8
01アンカー
  6
一点鎖線(短)
 62
     4
 48
0.2
100
AcDbLine
 10
149.9999971666766
 20
-188.6515724482087
 30
0.0
 11
149.9999971666766
 21
-111.3484218851445
 31
0.0
  0
LINE
  5
655E6
330
65595
100
AcDbEntity
  8
01アンカー
  6
一点鎖線(短)
 62
     4
 48
0.2
100
AcDbLine
 10
190.8230092617668
 20
-149.9999971666766
 30
0.0
 11
109.1769850715645
 21
-149.9999971666766
 31
0.0
  0
LINE
  5
655E7
330
65595
100
AcDbEntity
  8
01アンカー
  6
一点鎖線(短)
 62
     4
 48
0.2
100
AcDbLine
 10
-149.999997166662
 20
-188.6515724482014
 30
0.0
 11
-149.999997166662
 21
-111.3484218851372
 31
0.0
  0
LINE
  5
655E8
330
65595
100
AcDbEntity
  8
01アンカー
  6
一点鎖線(短)
 62
     4
 48
0.2
100
AcDbLine
 10
-109.1769850715718
 20
-149.9999971666693
 30
0.0
 11
-190.8230092617741
 21
-149.9999971666693
 31
0.0
  0
POINT
  5
655E9
330
65595
100
AcDbEntity
  8
01アンカー
100
AcDbPoint
 10
0.0
 20
0.0000000000004547
 30
0.0
  0
ENDBLK
  5
655EA
330
65595
100
AcDbEntity
  8
0
100
AcDbBlockEnd
  0
BLOCK
  5
65698
330
65695
100
AcDbEntity
  8
0
100
AcDbBlockBegin
  2
4M24P300L500
 70
     0
 10
0.0
 20
0.0
 30
0.0
  3
4M24P300L500
  1

  0
LINE
  5
65699
330
65695
100
AcDbEntity
  8
01アンカー
  6
ByBlock
100
AcDbLine
 10
174.9999999999636
 20
-104.5
 30
0.0
 11
-175.0000000002183
 21
-104.5
 31
0.0
  0
LINE
  5
6569A
330
65695
100
AcDbEntity
  8
01アンカー
  6
ByBlock
100
AcDbLine
 10
-175.0000000002183
 20
-100.0
 30
0.0
 11
174.9999999999636
 21
-100.0
 31
0.0
  0
LINE
  5
6569B
330
65695
100
AcDbEntity
  8
01アンカー
  6
ByBlock
100
AcDbLine
 10
174.9999999035426
 20
-304.5000000000018
 30
0.0
 11
-175.0000000965301
 21
-304.5000000000018
 31
0.0
  0
LINE
  5
6569C
330
65695
100
AcDbEntity
  8
01アンカー
  6
ByBlock
100
AcDbLine
 10
-175.0000000965301
 20
-300.0000000000036
 30
0.0
 11
174.9999999035426
 21
-300.0000000000036
 31
0.0
  0
LINE
  5
6569D
330
65695
100
AcDbEntity
  8
01アンカー
  6
ByBlock
100
AcDbLine
 10
-137.5000000000073
 20
-295.5000000000037
 30
0.0
 11
-137.5000000000073
 21
-104.4999999999981
 31
0.0
  0
LINE
  5
6569E
330
65695
100
AcDbEntity
  8
01アンカー
  6
ByBlock
100
AcDbLine
 10
-162.5000000000073
 20
-104.4999999999981
 30
0.0
 11
-162.5000000000073
 21
-295.5000000000037
 31
0.0
  0
LINE
  5
6569F
330
65695
100
AcDbEntity
  8
01アンカー
  6
一点鎖線(短)
 62
     4
 48
0.2
100
AcDbLine
 10
-207.9827562068458
 20
-356.5778844688339
 30
0.0
 11
-207.9827562068458
 21
-418.4221155311716
 31
0.0
  0
ELLIPSE
  5
656A0
330
65695
100
AcDbEntity
  8
01アンカー
  6
ByBlock
100
AcDbEllipse
 10
-207.9827561538259
 20
-387.5000000000018
 30
0.0
 11
0.0
 21
-12.5
 31
0.0
210
0.0
220
0.0
230
-1.0
 40
0.48
 41
3.141592653589793
 42
6.283185307179586
  0
ELLIPSE
  5
656A1
330
65695
100
AcDbEntity
  8
01アンカー
  6
ByBlock
100
AcDbEllipse
 10
-207.9827561538186
 20
-387.5
 30
0.0
 11
0.0
 21
12.5
 31
0.0
210
0.0
220
0.0
230
-1.0
 40
0.48
 41
3.141592653589793
 42
6.283185307179586
  0
LINE
  5
656A2
330
65695
100
AcDbEntity
  8
01アンカー
  6
ByBlock
100
AcDbLine
 10
-125.0000000965301
 20
-295.5000000000037
 30
0.0
 11
-125.0000000965301
 21
-300.0000000000036
 31
0.0
  0
LINE
  5
656A3
330
65695
100
AcDbEntity
  8
01アンカー
  6
ByBlock
100
AcDbLine
 10
-175.0000000965301
 20
-295.5000000000037
 30
0.0
 11
-125.0000000965301
 21
-295.5000000000037
 31
0.0
  0
LINE
  5
656A4
330
65695
100
AcDbEntity
  8
01アンカー
  6
ByBlock
 48
0.7
100
AcDbLine
 10
-162.5000000000073
 20
-29.99999999999818
 30
0.0
 11
-162.5000000000073
 21
-95.5
 31
0.0
  0
LINE
  5
656A5
330
65695
100
AcDbEntity
  8
01アンカー
  6
ByBlock
 48
0.7
100
AcDbLine
 10
-137.5000000000073
 20
-95.5
 30
0.0
 11
-137.5000000000073
 21
-29.99999999999818
 31
0.0
  0
LINE
  5
656A6
330
65695
100
AcDbEntity
  8
01アンカー
  6
ByBlock
100
AcDbLine
 10
-125.0000000000073
 20
-95.5
 30
0.0
 11
-125.0000000000073
 21
-100.0
 31
0.0
  0
LINE
  5
656A7
330
65695
100
AcDbEntity
  8
01アンカー
  6
ByBlock
100
AcDbLine
 10
-175.0000000000073
 20
-95.5
 30
0.0
 11
-125.0000000000073
 21
-95.5
 31
0.0
  0
LINE
  5
656A8
330
65695
100
AcDbEntity
  8
01アンカー
  6
ByBlock
100
AcDbLine
 10
-125.0000000000073
 20
-95.5
 30
0.0
 11
-125.0000000000073
 21
-95.5
 31
0.0
  0
LINE
  5
656A9
330
65695
100
AcDbEntity
  8
01アンカー
  6
ByBlock
100
AcDbLine
 10
-125.0000000000073
 20
-100.0
 30
0.0
 11
-125.0000000000073
 21
-95.5
 31
0.0
  0
LINE
  5
656AA
330
65695
100
AcDbEntity
  8
01アンカー
  6
ByBlock
100
AcDbLine
 10
-125.0000000000073
 20
-100.0
 30
0.0
 11
-125.0000000000073
 21
-100.0
 31
0.0
  0
LINE
  5
656AB
330
65695
100
AcDbEntity
  8
01アンカー
  6
ByBlock
100
AcDbLine
 10
-125.0000000000073
 20
-95.5
 30
0.0
 11
-125.0000000000073
 21
-100.0
 31
0.0
  0
LINE
  5
656AC
330
65695
100
AcDbEntity
  8
01アンカー
  6
一点鎖線(短)
 62
     4
 48
0.2
100
AcDbLine
 10
207.9827558642573
 20
-350.8691862169217
 30
0.0
 11
207.9827558642573
 21
-424.1308137830765
 31
0.0
  0
ELLIPSE
  5
656AD
330
65695
100
AcDbEntity
  8
01アンカー
  6
ByBlock
100
AcDbEllipse
 10
207.9827558642573
 20
-387.4999999999982
 30
0.0
 11
0.0
 21
12.5
 31
0.0
210
0.0
220
0.0
230
-1.0
 40
0.48
 41
3.141592653589793
 42
6.283185307179586
  0
ELLIPSE
  5
656AE
330
65695
100
AcDbEntity
  8
01アンカー
  6
ByBlock
100
AcDbEllipse
 10
207.9827559607656
 20
-387.4999999999982
 30
0.0
 11
0.0
 21
-12.5
 31
0.0
210
0.0
220
0.0
230
-1.0
 40
0.48
 41
3.141592653589793
 42
6.283185307179586
  0
LINE
  5
656AF
330
65695
100
AcDbEntity
  8
01アンカー
  6
ByBlock
100
AcDbLine
 10
185.4999999034771
 20
-399.9999999999982
 30
0.0
 11
207.9827559607729
 21
-399.9999999999982
 31
0.0
  0
LINE
  5
656B0
330
65695
100
AcDbEntity
  8
01アンカー
  6
ByBlock
100
AcDbLine
 10
207.9827559607729
 20
-375.0
 30
0.0
 11
186.4999999034771
 21
-375.0
 31
0.0
  0
LINE
  5
656B1
330
65695
100
AcDbEntity
  8
01アンカー
  6
ByBlock
100
AcDbLine
 10
174.9999999035426
 20
-300.0000000000036
 30
0.0
 11
174.9999999035426
 21
-304.5000000000018
 31
0.0
  0
LINE
  5
656B2
330
65695
100
AcDbEntity
  8
01アンカー
  6
ByBlock
100
AcDbLine
 10
174.9999999034771
 20
-300.0000000000018
 30
0.0
 11
174.9999999034771
 21
-304.5
 31
0.0
  0
LINE
  5
656B3
330
65695
100
AcDbEntity
  8
01アンカー
  6
ByBlock
100
AcDbLine
 10
174.9999999034771
 20
-295.5000000000018
 30
0.0
 11
174.9999999034771
 21
-300.0000000000018
 31
0.0
  0
LINE
  5
656B4
330
65695
100
AcDbEntity
  8
01アンカー
  6
ByBlock
100
AcDbLine
 10
124.9999999034771
 20
-295.5000000000018
 30
0.0
 11
174.9999999034771
 21
-295.5000000000018
 31
0.0
  0
LINE
  5
656B5
330
65695
100
AcDbEntity
  8
01アンカー
  6
ByBlock
100
AcDbLine
 10
-175.0000000965301
 20
-300.0000000000036
 30
0.0
 11
-175.0000000965301
 21
-304.5000000000018
 31
0.0
  0
LINE
  5
656B6
330
65695
100
AcDbEntity
  8
01アンカー
  6
ByBlock
100
AcDbLine
 10
-175.0000000965956
 20
-300.0000000000018
 30
0.0
 11
-175.0000000965956
 21
-304.5
 31
0.0
  0
LINE
  5
656B7
330
65695
100
AcDbEntity
  8
01アンカー
  6
ByBlock
100
AcDbLine
 10
-175.0000000965956
 20
-295.5000000000018
 30
0.0
 11
-175.0000000965956
 21
-300.0000000000018
 31
0.0
  0
LINE
  5
656B8
330
65695
100
AcDbEntity
  8
01アンカー
  6
ByBlock
100
AcDbLine
 10
-175.0000000000436
 20
-100.0000000000018
 30
0.0
 11
-175.0000000000436
 21
-104.5000000000018
 31
0.0
  0
LINE
  5
656B9
330
65695
100
AcDbEntity
  8
01アンカー
  6
ByBlock
100
AcDbLine
 10
-175.0000000000073
 20
-95.5
 30
0.0
 11
-175.0000000000073
 21
-99.99999999999818
 31
0.0
  0
LINE
  5
656BA
330
65695
100
AcDbEntity
  8
01アンカー
  6
ByBlock
100
AcDbLine
 10
-175.0000000000073
 20
-99.99999999999818
 30
0.0
 11
-175.0000000000073
 21
-104.4999999999981
 31
0.0
  0
LWPOLYLINE
  5
656BB
330
65695
100
AcDbEntity
  8
01アンカー
  6
一点鎖線(短)
 62
     4
 48
0.7
100
AcDbPolyline
 90
        4
 70
   128
 43
0.0
 10
-226.0000000482578
 20
-387.5000000000018
 10
-186.0
 20
-387.5000000000018
 42
0.4142135623730982
 10
-150.0
 20
-351.5000000000009
 10
-150.0000000000073
 20
152.2539737827301
  0
LWPOLYLINE
  5
656BC
330
65695
100
AcDbEntity
  8
01アンカー
  6
ByBlock
100
AcDbPolyline
 90
        4
 70
   128
 43
0.0
 10
-207.9827561538114
 20
-400.0000000000018
 10
-186.0
 20
-400.0000000000018
 42
0.4142135623730982
 10
-137.5
 20
-351.5000000000009
 10
-137.5000000000073
 20
-304.5000000000018
  0
LWPOLYLINE
  5
656BD
330
65695
100
AcDbEntity
  8
01アンカー
  6
ByBlock
100
AcDbPolyline
 90
        4
 70
   128
 43
0.0
 10
-207.9827561538114
 20
-375.0000000000018
 10
-186.0
 20
-375.0000000000018
 42
0.4142135623730982
 10
-162.5
 20
-351.5000000000009
 10
-162.5000000000073
 20
-304.5000000000018
  0
LINE
  5
656BE
330
65695
100
AcDbEntity
  8
01アンカー
  6
ByBlock
100
AcDbLine
 10
137.4999999999927
 20
-295.5000000000037
 30
0.0
 11
137.4999999999927
 21
-104.4999999999981
 31
0.0
  0
LINE
  5
656BF
330
65695
100
AcDbEntity
  8
01アンカー
  6
ByBlock
100
AcDbLine
 10
162.4999999999927
 20
-104.4999999999981
 30
0.0
 11
162.4999999999927
 21
-295.5000000000037
 31
0.0
  0
LINE
  5
656C0
330
65695
100
AcDbEntity
  8
01アンカー
  6
一点鎖線(短)
 62
     4
 48
0.2
100
AcDbLine
 10
207.9827562068313
 20
-356.5778844688339
 30
0.0
 11
207.9827562068313
 21
-418.4221155311716
 31
0.0
  0
ELLIPSE
  5
656C1
330
65695
100
AcDbEntity
  8
01アンカー
  6
ByBlock
100
AcDbEllipse
 10
207.9827561538114
 20
-387.5000000000018
 30
0.0
 11
0.0
 21
-12.5
 31
0.0
210
0.0
220
0.0
230
1.0
 40
0.48
 41
3.141592653589793
 42
6.283185307179586
  0
ELLIPSE
  5
656C2
330
65695
100
AcDbEntity
  8
01アンカー
  6
ByBlock
100
AcDbEllipse
 10
207.9827561538041
 20
-387.5
 30
0.0
 11
0.0
 21
12.5
 31
0.0
210
0.0
220
0.0
230
1.0
 40
0.48
 41
3.141592653589793
 42
6.283185307179586
  0
LINE
  5
656C3
330
65695
100
AcDbEntity
  8
01アンカー
  6
ByBlock
100
AcDbLine
 10
125.0000000965155
 20
-295.5000000000037
 30
0.0
 11
125.0000000965155
 21
-300.0000000000036
 31
0.0
  0
LINE
  5
656C4
330
65695
100
AcDbEntity
  8
01アンカー
  6
ByBlock
100
AcDbLine
 10
175.0000000965155
 20
-295.5000000000037
 30
0.0
 11
125.0000000965155
 21
-295.5000000000037
 31
0.0
  0
LINE
  5
656C5
330
65695
100
AcDbEntity
  8
01アンカー
  6
ByBlock
 48
0.7
100
AcDbLine
 10
162.4999999999927
 20
-29.99999999999818
 30
0.0
 11
162.4999999999927
 21
-95.5
 31
0.0
  0
LINE
  5
656C6
330
65695
100
AcDbEntity
  8
01アンカー
  6
ByBlock
 48
0.7
100
AcDbLine
 10
137.4999999999927
 20
-95.5
 30
0.0
 11
137.4999999999927
 21
-29.99999999999818
 31
0.0
  0
LINE
  5
656C7
330
65695
100
AcDbEntity
  8
01アンカー
  6
ByBlock
100
AcDbLine
 10
124.9999999999927
 20
-95.5
 30
0.0
 11
124.9999999999927
 21
-100.0
 31
0.0
  0
LINE
  5
656C8
330
65695
100
AcDbEntity
  8
01アンカー
  6
ByBlock
100
AcDbLine
 10
174.9999999999927
 20
-95.5
 30
0.0
 11
124.9999999999927
 21
-95.5
 31
0.0
  0
LINE
  5
656C9
330
65695
100
AcDbEntity
  8
01アンカー
  6
ByBlock
100
AcDbLine
 10
124.9999999999927
 20
-95.5
 30
0.0
 11
124.9999999999927
 21
-95.5
 31
0.0
  0
LINE
  5
656CA
330
65695
100
AcDbEntity
  8
01アンカー
  6
ByBlock
100
AcDbLine
 10
124.9999999999927
 20
-100.0
 30
0.0
 11
124.9999999999927
 21
-95.5
 31
0.0
  0
LINE
  5
656CB
330
65695
100
AcDbEntity
  8
01アンカー
  6
ByBlock
100
AcDbLine
 10
124.9999999999927
 20
-100.0
 30
0.0
 11
124.9999999999927
 21
-100.0
 31
0.0
  0
LINE
  5
656CC
330
65695
100
AcDbEntity
  8
01アンカー
  6
ByBlock
100
AcDbLine
 10
124.9999999999927
 20
-95.5
 30
0.0
 11
124.9999999999927
 21
-100.0
 31
0.0
  0
LINE
  5
656CD
330
65695
100
AcDbEntity
  8
01アンカー
  6
ByBlock
100
AcDbLine
 10
175.0000000965155
 20
-300.0000000000036
 30
0.0
 11
175.0000000965155
 21
-304.5000000000018
 31
0.0
  0
LINE
  5
656CE
330
65695
100
AcDbEntity
  8
01アンカー
  6
ByBlock
100
AcDbLine
 10
175.000000096581
 20
-300.0000000000018
 30
0.0
 11
175.000000096581
 21
-304.5
 31
0.0
  0
LINE
  5
656CF
330
65695
100
AcDbEntity
  8
01アンカー
  6
ByBlock
100
AcDbLine
 10
175.000000096581
 20
-295.5000000000018
 30
0.0
 11
175.000000096581
 21
-300.0000000000018
 31
0.0
  0
LINE
  5
656D0
330
65695
100
AcDbEntity
  8
01アンカー
  6
ByBlock
100
AcDbLine
 10
175.0000000000291
 20
-100.0000000000018
 30
0.0
 11
175.0000000000291
 21
-104.5000000000018
 31
0.0
  0
LINE
  5
656D1
330
65695
100
AcDbEntity
  8
01アンカー
  6
ByBlock
100
AcDbLine
 10
174.9999999999927
 20
-95.5
 30
0.0
 11
174.9999999999927
 21
-99.99999999999818
 31
0.0
  0
LINE
  5
656D2
330
65695
100
AcDbEntity
  8
01アンカー
  6
ByBlock
100
AcDbLine
 10
174.9999999999927
 20
-99.99999999999818
 30
0.0
 11
174.9999999999927
 21
-104.4999999999981
 31
0.0
  0
LWPOLYLINE
  5
656D3
330
65695
100
AcDbEntity
  8
01アンカー
  6
ByBlock
100
AcDbPolyline
 90
        4
 70
   128
 43
0.0
 10
207.9827561537968
 20
-400.0000000000018
 10
185.9999999999854
 20
-400.0000000000018
 42
-0.4142135623730982
 10
137.4999999999854
 20
-351.5000000000009
 10
137.4999999999927
 20
-304.5000000000018
  0
LWPOLYLINE
  5
656D4
330
65695
100
AcDbEntity
  8
01アンカー
  6
ByBlock
100
AcDbPolyline
 90
        4
 70
   128
 43
0.0
 10
207.9827561537968
 20
-375.0000000000018
 10
185.9999999999854
 20
-375.0000000000018
 42
-0.4142135623730982
 10
162.4999999999854
 20
-351.5000000000009
 10
162.4999999999927
 20
-304.5000000000018
  0
LWPOLYLINE
  5
656D5
330
65695
100
AcDbEntity
  8
01アンカー
  6
一点鎖線(短)
 62
     4
 48
0.7
100
AcDbPolyline
 90
        4
 70
   128
 43
0.0
 10
226.0000000482578
 20
-387.5000000000018
 10
185.9999999999854
 20
-387.5000000000018
 42
-0.4142135623730982
 10
149.9999999999854
 20
-351.5000000000009
 10
149.9999999999927
 20
152.2539737827301
  0
POINT
  5
656D6
330
65695
100
AcDbEntity
  8
Defpoints
100
AcDbPoint
 10
0.0
 20
0.0
 30
0.0
  0
HATCH
  5
656D7
330
65695
100
AcDbEntity
  8
01アンカー
 62
    11
100
AcDbHatch
 10
0.0
 20
0.0
 30
0.0
210
0.0
220
0.0
230
1.0
  2
LINE
 70
     0
 71
     0
 91
        2
 92
        7
 72
     0
 73
     1
 93
        4
 10
-150.0000000000039
 20
100.0
 10
-162.0000000000047
 20
100.0
 10
-161.9999999999902
 20
42.00014893505538
 10
-150.000000000003
 20
42.00014893505531
 97
        0
 92
        7
 72
     0
 73
     1
 93
        4
 10
-138.0000000000119
 20
100.0
 10
-150.0000000000038
 20
100.0
 10
-150.000000000003
 20
42.00014893505531
 10
-138.0000000000119
 20
42.00014893505524
 97
        0
 75
     0
 76
     1
 52
30.0
 41
50.0
 77
     0
 78
     1
 53
30.0
 43
-39.99999999999739
 44
0.0
 45
-3.124999999999999
 46
5.412658773652742
 79
     0
 47
0.4444627751379907
 98
        2
 10
-153.8791190940216
 20
76.27455673499412
 10
-143.2094259712854
 20
76.71901958412127
1001
ACAD
1010
0.0
1020
0.0
1030
0.0
  0
HATCH
  5
656D8
330
65695
100
AcDbEntity
  8
01アンカー
 62
    11
100
AcDbHatch
 10
0.0
 20
0.0
 30
0.0
210
0.0
220
0.0
230
1.0
  2
LINE
 70
     0
 71
     0
 91
        1
 92
        7
 72
     0
 73
     1
 93
        4
 10
-138.0000000000119
 20
0.0
 10
-162.0000000000047
 20
0.0
 10
-162.0000000000047
 20
-29.99999999999818
 10
-138.0000000000119
 20
-29.99999999999818
 97
        0
 75
     0
 76
     1
 52
30.0
 41
50.0
 77
     0
 78
     1
 53
30.0
 43
-25.00000000012472
 44
0.0
 45
-3.124999999999999
 46
5.412658773652742
 79
     0
 47
0.6361211184033665
 98
        1
 10
-148.8389943158269
 20
-16.20305111712287
1001
ACAD
1010
0.0
1020
0.0
1030
0.0
  0
LINE
  5
656D9
330
65695
100
AcDbEntity
  8
01アンカー
  6
ByBlock
100
AcDbLine
 10
-162.5000000000046
 20
-29.99999999999818
 30
0.0
 11
-137.5000000000046
 21
-29.99999999999818
 31
0.0
  0
LINE
  5
656DA
330
65695
100
AcDbEntity
  8
01アンカー
 48
0.5
100
AcDbLine
 10
-138.0000000000119
 20
0.0
 30
0.0
 11
-138.0000000000119
 21
-29.99999999999818
 31
0.0
  0
LINE
  5
656DB
330
65695
100
AcDbEntity
  8
01アンカー
 48
0.5
100
AcDbLine
 10
-162.0000000000047
 20
0.0
 30
0.0
 11
-162.0000000000047
 21
-29.99999999999818
 31
0.0
  0
LINE
  5
656DC
330
65695
100
AcDbEntity
  8
01アンカー
100
AcDbLine
 10
-162.0000000000047
 20
100.0
 30
0.0
 11
-161.9999999999902
 21
42.00014893505536
 31
0.0
  0
LINE
  5
656DD
330
65695
100
AcDbEntity
  8
01アンカー
100
AcDbLine
 10
-138.0000000000119
 20
100.0
 30
0.0
 11
-162.0000000000047
 21
100.0
 31
0.0
  0
LINE
  5
656DE
330
65695
100
AcDbEntity
  8
01アンカー
100
AcDbLine
 10
-138.0000000000119
 20
42.00014893505525
 30
0.0
 11
-138.0000000000119
 21
100.0
 31
0.0
  0
LWPOLYLINE
  5
656DF
330
65695
100
AcDbEntity
  8
00補助線
  6
Continuous
100
AcDbPolyline
 90
        4
 70
     1
 43
0.0
 10
-174.0000000000046
 20
0.0
 10
-126.0000000000046
 20
0.0
 10
-126.0000000000046
 20
4.0
 10
-174.0000000000046
 20
4.0
  0
LINE
  5
656E0
330
65695
100
AcDbEntity
  8
00補助線
  6
破線(短)
100
AcDbLine
 10
-161.2500000000046
 20
-0.0000004355631518
 30
0.0
 11
-161.2500000000046
 21
4.0
 31
0.0
  0
LINE
  5
656E1
330
65695
100
AcDbEntity
  8
00補助線
  6
破線(短)
100
AcDbLine
 10
-138.7500000000046
 20
0.0
 30
0.0
 11
-138.7500000000046
 21
4.0
 31
0.0
  0
INSERT
  5
656E2
330
65695
100
AcDbEntity
  8
01アンカー
100
AcDbBlockReference
  2
A$C306E20C6
 10
-150.0000000000046
 20
4.0
 30
0.0
  0
INSERT
  5
656E3
330
65695
100
AcDbEntity
  8
01アンカー
100
AcDbBlockReference
  2
A$C306E20C6
 10
-149.9999480370023
 20
23.00007446745144
 30
0.0
  0
HATCH
  5
656E4
330
65695
100
AcDbEntity
  8
01アンカー
 62
    11
100
AcDbHatch
 10
0.0
 20
0.0
 30
0.0
210
0.0
220
0.0
230
1.0
  2
LINE
 70
     0
 71
     0
 91
        2
 92
        7
 72
     0
 73
     1
 93
        4
 10
149.9999999999954
 20
99.99999999999568
 10
137.9999999999947
 20
99.99999999999568
 10
138.0000000000092
 20
42.00014893505105
 10
149.9999999999963
 20
42.00014893505098
 97
        0
 92
        7
 72
     0
 73
     1
 93
        4
 10
161.9999999999875
 20
99.99999999999568
 10
149.9999999999955
 20
99.99999999999568
 10
149.9999999999963
 20
42.00014893505098
 10
161.9999999999875
 20
42.00014893505091
 97
        0
 75
     0
 76
     1
 52
30.0
 41
50.0
 77
     0
 78
     1
 53
30.0
 43
260.000000000002
 44
-0.0000000000043201
 45
-3.124999999999999
 46
5.412658773652742
 79
     0
 47
0.4444627751379907
 98
        2
 10
146.1208809059778
 20
76.2745567349898
 10
156.790574028714
 20
76.71901958411694
1001
ACAD
1010
0.0
1020
0.0
1030
0.0
  0
HATCH
  5
656E5
330
65695
100
AcDbEntity
  8
01アンカー
 62
    11
100
AcDbHatch
 10
0.0
 20
0.0
 30
0.0
210
0.0
220
0.0
230
1.0
  2
LINE
 70
     0
 71
     0
 91
        1
 92
        7
 72
     0
 73
     1
 93
        4
 10
161.9999999999875
 20
-0.0000000000043201
 10
137.9999999999947
 20
-0.0000000000043201
 10
137.9999999999947
 20
-30.0000000000025
 10
161.9999999999875
 20
-30.0000000000025
 97
        0
 75
     0
 76
     1
 52
30.0
 41
50.0
 77
     0
 78
     1
 53
30.0
 43
274.9999999998747
 44
-0.0000000000043201
 45
-3.124999999999999
 46
5.412658773652742
 79
     0
 47
0.6361211184033665
 98
        1
 10
151.1610056841725
 20
-16.20305111712719
1001
ACAD
1010
0.0
1020
0.0
1030
0.0
  0
LINE
  5
656E6
330
65695
100
AcDbEntity
  8
01アンカー
  6
ByBlock
100
AcDbLine
 10
137.4999999999948
 20
-30.0000000000025
 30
0.0
 11
162.4999999999948
 21
-30.0000000000025
 31
0.0
  0
LINE
  5
656E7
330
65695
100
AcDbEntity
  8
01アンカー
 48
0.5
100
AcDbLine
 10
161.9999999999875
 20
-0.0000000000043201
 30
0.0
 11
161.9999999999875
 21
-30.0000000000025
 31
0.0
  0
LINE
  5
656E8
330
65695
100
AcDbEntity
  8
01アンカー
 48
0.5
100
AcDbLine
 10
137.9999999999947
 20
-0.0000000000043201
 30
0.0
 11
137.9999999999947
 21
-30.0000000000025
 31
0.0
  0
LINE
  5
656E9
330
65695
100
AcDbEntity
  8
01アンカー
100
AcDbLine
 10
137.9999999999947
 20
99.99999999999568
 30
0.0
 11
138.0000000000092
 21
42.00014893505104
 31
0.0
  0
LINE
  5
656EA
330
65695
100
AcDbEntity
  8
01アンカー
100
AcDbLine
 10
161.9999999999875
 20
99.99999999999568
 30
0.0
 11
137.9999999999947
 21
99.99999999999568
 31
0.0
  0
LINE
  5
656EB
330
65695
100
AcDbEntity
  8
01アンカー
100
AcDbLine
 10
161.9999999999875
 20
42.00014893505093
 30
0.0
 11
161.9999999999875
 21
99.99999999999568
 31
0.0
  0
LWPOLYLINE
  5
656EC
330
65695
100
AcDbEntity
  8
00補助線
  6
Continuous
100
AcDbPolyline
 90
        4
 70
     1
 43
0.0
 10
125.9999999999948
 20
-0.0000000000043201
 10
173.9999999999947
 20
-0.0000000000043201
 10
173.9999999999947
 20
3.999999999995679
 10
125.9999999999948
 20
3.999999999995679
  0
LINE
  5
656ED
330
65695
100
AcDbEntity
  8
00補助線
  6
破線(短)
100
AcDbLine
 10
138.7499999999947
 20
-0.0000004355674719
 30
0.0
 11
138.7499999999947
 21
3.999999999995679
 31
0.0
  0
LINE
  5
656EE
330
65695
100
AcDbEntity
  8
00補助線
  6
破線(短)
100
AcDbLine
 10
161.2499999999947
 20
-0.0000000000043201
 30
0.0
 11
161.2499999999947
 21
3.999999999995679
 31
0.0
  0
INSERT
  5
656EF
330
65695
100
AcDbEntity
  8
01アンカー
100
AcDbBlockReference
  2
A$C306E20C6
 10
149.9999999999948
 20
3.999999999995679
 30
0.0
  0
INSERT
  5
656F0
330
65695
100
AcDbEntity
  8
01アンカー
100
AcDbBlockReference
  2
A$C306E20C6
 10
150.0000519629971
 20
23.00007446744712
 30
0.0
  0
ENDBLK
  5
656F1
330
65695
100
AcDbEntity
  8
0
100
AcDbBlockEnd
  0
BLOCK
  5
65701
330
656FE
100
AcDbEntity
  8
0
100
AcDbBlockBegin
  2
A$C306E20C6
 70
     0
 10
0.0
 20
0.0
 30
0.0
  3
A$C306E20C6
  1

  0
LINE
  5
65702
330
656FE
100
AcDbEntity
  8
00補助線
  6
ByBlock
 48
4.0
100
AcDbLine
 10
-15.5700599865425
 20
19.00007446760395
 30
0.0
 11
15.56994005733992
 21
19.00007446760378
 31
0.0
  0
LINE
  5
65703
330
656FE
100
AcDbEntity
  8
00補助線
  6
ByBlock
 48
4.0
100
AcDbLine
 10
-20.75994825186473
 20
17.66186281889099
 30
0.0
 11
-20.75994825186473
 21
0.0
 31
0.0
  0
LINE
  5
65704
330
656FE
100
AcDbEntity
  8
00補助線
  6
ByBlock
 48
4.0
100
AcDbLine
 10
-10.38005179201724
 20
17.66186281889099
 30
0.0
 11
-10.38005179201724
 21
0.0
 31
0.0
  0
LINE
  5
65705
330
656FE
100
AcDbEntity
  8
00補助線
  6
ByBlock
 48
4.0
100
AcDbLine
 10
20.75994825186473
 20
17.66186281889099
 30
0.0
 11
20.75994825186473
 21
0.0
 31
0.0
  0
LINE
  5
65706
330
656FE
100
AcDbEntity
  8
00補助線
  6
ByBlock
 48
4.0
100
AcDbLine
 10
10.37993186281511
 20
17.66186281889099
 30
0.0
 11
10.37993186281511
 21
0.0
 31
0.0
  0
LINE
  5
65707
330
656FE
100
AcDbEntity
  8
00補助線
  6
ByBlock
 48
4.0
100
AcDbLine
 10
-20.75994825186473
 20
0.0
 30
0.0
 11
20.75994825186473
 21
0.0
 31
0.0
  0
ARC
  5
65708
330
656FE
100
AcDbEntity
  8
00補助線
  6
ByBlock
 48
4.0
100
AcDbCircle
 10
-0.000059964601121
 20
-21.92582871792053
 30
0.0
 40
40.92590318552501
100
AcDbArc
 50
75.30764374843085
 51
104.6923562515691
  0
ARC
  5
65709
330
656FE
100
AcDbEntity
  8
00補助線
  6
ByBlock
 48
4.0
100
AcDbCircle
 10
15.56994005733992
 20
8.266721674113682
 30
0.0
 40
10.73335279349014
100
AcDbArc
 50
61.08312162425195
 51
118.916878375748
  0
ARC
  5
6570A
330
656FE
100
AcDbEntity
  8
00補助線
  6
ByBlock
 48
4.0
100
AcDbCircle
 10
-15.5700599865425
 20
8.266721674113796
 30
0.0
 40
10.73335279349014
100
AcDbArc
 50
61.08312162425195
 51
118.916878375748
  0
ENDBLK
  5
6570B
330
656FE
100
AcDbEntity
  8
0
100
AcDbBlockEnd
  0
BLOCK
  5
6571D
330
6571A
100
AcDbEntity
  8
0
100
AcDbBlockBegin
  2
M16
 70
     0
 10
0.0
 20
0.0
 30
0.0
  3
M16
  1

  0
LWPOLYLINE
  5
6571E
330
6571A
100
AcDbEntity
  8
0
  6
破線(短)
 62
     0
 48
0.3
370
    -2
100
AcDbPolyline
 90
        6
 70
     0
 43
0.0
 10
-45.0
 20
10.90000000000145
 10
-45.0
 20
16.0
 10
-49.5
 20
16.0
 10
-49.5
 20
-16.0
 10
-45.0
 20
-16.0
 10
-45.0
 20
-10.90000000000145
  0
LINE
  5
6571F
330
6571A
100
AcDbEntity
  8
0
  6
一点鎖線(短)
 48
0.3
100
AcDbLine
 10
-63.39922485944407
 20
0.0
 30
0.0
 11
29.37738094781526
 21
0.0
 31
0.0
  0
LWPOLYLINE
  5
65720
330
6571A
100
AcDbEntity
  8
0
  6
破線(短)
 62
     0
 48
0.3
100
AcDbPolyline
 90
        4
 70
     0
 43
0.0
 10
-45.0
 20
10.90000000000145
 10
0.0000000000000026
 20
10.90000000000145
 10
0.0000000000000026
 20
-10.90000000000145
 10
-45.0
 20
-10.90000000000145
  0
ENDBLK
  5
65721
330
6571A
100
AcDbEntity
  8
0
100
AcDbBlockEnd
  0
BLOCK
  5
65725
330
65722
100
AcDbEntity
  8
0
100
AcDbBlockBegin
  2
A$C16D64A1D
 70
     0
 10
0.0
 20
0.0
 30
0.0
  3
A$C16D64A1D
  1

  0
INSERT
  5
65726
330
65722
100
AcDbEntity
  8
00補助線
  6
Continuous
100
AcDbBlockReference
  2
M16
 10
-299.999994333335
 20
0.0
 30
0.0
 41
-1.0
  0
INSERT
  5
65727
330
65722
100
AcDbEntity
  8
00補助線
  6
Continuous
100
AcDbBlockReference
  2
M16
 10
299.999994333335
 20
0.0
 30
0.0
  0
ENDBLK
  5
65728
330
65722
100
AcDbEntity
  8
0
100
AcDbBlockEnd
  0
BLOCK
  5
6572C
330
65729
100
AcDbEntity
  8
0
100
AcDbBlockBegin
  2
A$C07505C29
 70
     0
 10
0.0
 20
0.0
 30
0.0
  3
A$C07505C29
  1

  0
INSERT
  5
6572D
330
65729
100
AcDbEntity
  8
00補助線
  6
Continuous
100
AcDbBlockReference
  2
M16
 10
-299.9999943333387
 20
-150.0
 30
0.0
 41
-1.0
  0
INSERT
  5
6572E
330
65729
100
AcDbEntity
  8
00補助線
  6
Continuous
100
AcDbBlockReference
  2
M16
 10
299.9999943333314
 20
-150.0
 30
0.0
  0
ENDBLK
  5
6572F
330
65729
100
AcDbEntity
  8
0
100
AcDbBlockEnd
  0
BLOCK
  5
66E02
330
66DFF
100
AcDbEntity
  8
0
100
AcDbBlockBegin
  2
4M24P250L500
 70
     0
 10
0.0
 20
0.0
 30
0.0
  3
4M24P250L500
  1

  0
LINE
  5
66E03
330
66DFF
100
AcDbEntity
  8
01アンカー
  6
ByBlock
100
AcDbLine
 10
149.9999999999636
 20
-104.5
 30
0.0
 11
-150.0000000002183
 21
-104.5
 31
0.0
  0
LINE
  5
66E04
330
66DFF
100
AcDbEntity
  8
01アンカー
  6
ByBlock
100
AcDbLine
 10
-150.0000000002183
 20
-100.0
 30
0.0
 11
149.9999999999636
 21
-100.0
 31
0.0
  0
LINE
  5
66E05
330
66DFF
100
AcDbEntity
  8
01アンカー
  6
ByBlock
100
AcDbLine
 10
149.9999999035426
 20
-304.5000000000018
 30
0.0
 11
-150.0000000965301
 21
-304.5000000000018
 31
0.0
  0
LINE
  5
66E06
330
66DFF
100
AcDbEntity
  8
01アンカー
  6
ByBlock
100
AcDbLine
 10
-150.0000000965301
 20
-300.0000000000036
 30
0.0
 11
149.9999999035426
 21
-300.0000000000036
 31
0.0
  0
LINE
  5
66E07
330
66DFF
100
AcDbEntity
  8
01アンカー
  6
ByBlock
100
AcDbLine
 10
-112.5000000000073
 20
-295.5000000000037
 30
0.0
 11
-112.5000000000073
 21
-104.4999999999981
 31
0.0
  0
LINE
  5
66E08
330
66DFF
100
AcDbEntity
  8
01アンカー
  6
ByBlock
100
AcDbLine
 10
-137.5000000000073
 20
-104.4999999999981
 30
0.0
 11
-137.5000000000073
 21
-295.5000000000037
 31
0.0
  0
LINE
  5
66E09
330
66DFF
100
AcDbEntity
  8
01アンカー
  6
一点鎖線(短)
 62
     4
 48
0.2
100
AcDbLine
 10
-182.9827562068458
 20
-356.5778844688339
 30
0.0
 11
-182.9827562068458
 21
-418.4221155311716
 31
0.0
  0
ELLIPSE
  5
66E0A
330
66DFF
100
AcDbEntity
  8
01アンカー
  6
ByBlock
100
AcDbEllipse
 10
-182.9827561538259
 20
-387.5000000000018
 30
0.0
 11
0.0
 21
-12.5
 31
0.0
210
0.0
220
0.0
230
-1.0
 40
0.48
 41
3.141592653589793
 42
6.283185307179586
  0
ELLIPSE
  5
66E0B
330
66DFF
100
AcDbEntity
  8
01アンカー
  6
ByBlock
100
AcDbEllipse
 10
-182.9827561538186
 20
-387.5
 30
0.0
 11
0.0
 21
12.5
 31
0.0
210
0.0
220
0.0
230
-1.0
 40
0.48
 41
3.141592653589793
 42
6.283185307179586
  0
LINE
  5
66E0C
330
66DFF
100
AcDbEntity
  8
01アンカー
  6
ByBlock
100
AcDbLine
 10
-100.0000000965301
 20
-295.5000000000037
 30
0.0
 11
-100.0000000965301
 21
-300.0000000000036
 31
0.0
  0
LINE
  5
66E0D
330
66DFF
100
AcDbEntity
  8
01アンカー
  6
ByBlock
100
AcDbLine
 10
-150.0000000965301
 20
-295.5000000000037
 30
0.0
 11
-100.0000000965301
 21
-295.5000000000037
 31
0.0
  0
LINE
  5
66E0E
330
66DFF
100
AcDbEntity
  8
01アンカー
  6
ByBlock
 48
0.7
100
AcDbLine
 10
-137.5000000000073
 20
-29.99999999999818
 30
0.0
 11
-137.5000000000073
 21
-95.5
 31
0.0
  0
LINE
  5
66E0F
330
66DFF
100
AcDbEntity
  8
01アンカー
  6
ByBlock
 48
0.7
100
AcDbLine
 10
-112.5000000000073
 20
-95.5
 30
0.0
 11
-112.5000000000073
 21
-29.99999999999818
 31
0.0
  0
LINE
  5
66E10
330
66DFF
100
AcDbEntity
  8
01アンカー
  6
ByBlock
100
AcDbLine
 10
-100.0000000000073
 20
-95.5
 30
0.0
 11
-100.0000000000073
 21
-100.0
 31
0.0
  0
LINE
  5
66E11
330
66DFF
100
AcDbEntity
  8
01アンカー
  6
ByBlock
100
AcDbLine
 10
-150.0000000000073
 20
-95.5
 30
0.0
 11
-100.0000000000073
 21
-95.5
 31
0.0
  0
LINE
  5
66E12
330
66DFF
100
AcDbEntity
  8
01アンカー
  6
ByBlock
100
AcDbLine
 10
-100.0000000000073
 20
-95.5
 30
0.0
 11
-100.0000000000073
 21
-95.5
 31
0.0
  0
LINE
  5
66E13
330
66DFF
100
AcDbEntity
  8
01アンカー
  6
ByBlock
100
AcDbLine
 10
-100.0000000000073
 20
-100.0
 30
0.0
 11
-100.0000000000073
 21
-95.5
 31
0.0
  0
LINE
  5
66E14
330
66DFF
100
AcDbEntity
  8
01アンカー
  6
ByBlock
100
AcDbLine
 10
-100.0000000000073
 20
-100.0
 30
0.0
 11
-100.0000000000073
 21
-100.0
 31
0.0
  0
LINE
  5
66E15
330
66DFF
100
AcDbEntity
  8
01アンカー
  6
ByBlock
100
AcDbLine
 10
-100.0000000000073
 20
-95.5
 30
0.0
 11
-100.0000000000073
 21
-100.0
 31
0.0
  0
LINE
  5
66E16
330
66DFF
100
AcDbEntity
  8
01アンカー
  6
一点鎖線(短)
 62
     4
 48
0.2
100
AcDbLine
 10
182.9827558642573
 20
-350.8691862169217
 30
0.0
 11
182.9827558642573
 21
-424.1308137830765
 31
0.0
  0
ELLIPSE
  5
66E17
330
66DFF
100
AcDbEntity
  8
01アンカー
  6
ByBlock
100
AcDbEllipse
 10
182.9827558642573
 20
-387.4999999999982
 30
0.0
 11
0.0
 21
12.5
 31
0.0
210
0.0
220
0.0
230
-1.0
 40
0.48
 41
3.141592653589793
 42
6.283185307179586
  0
ELLIPSE
  5
66E18
330
66DFF
100
AcDbEntity
  8
01アンカー
  6
ByBlock
100
AcDbEllipse
 10
182.9827559607656
 20
-387.4999999999982
 30
0.0
 11
0.0
 21
-12.5
 31
0.0
210
0.0
220
0.0
230
-1.0
 40
0.48
 41
3.141592653589793
 42
6.283185307179586
  0
LINE
  5
66E19
330
66DFF
100
AcDbEntity
  8
01アンカー
  6
ByBlock
100
AcDbLine
 10
160.4999999034771
 20
-399.9999999999982
 30
0.0
 11
182.9827559607729
 21
-399.9999999999982
 31
0.0
  0
LINE
  5
66E1A
330
66DFF
100
AcDbEntity
  8
01アンカー
  6
ByBlock
100
AcDbLine
 10
182.9827559607729
 20
-375.0
 30
0.0
 11
161.4999999034771
 21
-375.0
 31
0.0
  0
LINE
  5
66E1B
330
66DFF
100
AcDbEntity
  8
01アンカー
  6
ByBlock
100
AcDbLine
 10
149.9999999035426
 20
-300.0000000000036
 30
0.0
 11
149.9999999035426
 21
-304.5000000000018
 31
0.0
  0
LINE
  5
66E1C
330
66DFF
100
AcDbEntity
  8
01アンカー
  6
ByBlock
100
AcDbLine
 10
149.9999999034771
 20
-300.0000000000018
 30
0.0
 11
149.9999999034771
 21
-304.5
 31
0.0
  0
LINE
  5
66E1D
330
66DFF
100
AcDbEntity
  8
01アンカー
  6
ByBlock
100
AcDbLine
 10
149.9999999034771
 20
-295.5000000000018
 30
0.0
 11
149.9999999034771
 21
-300.0000000000018
 31
0.0
  0
LINE
  5
66E1E
330
66DFF
100
AcDbEntity
  8
01アンカー
  6
ByBlock
100
AcDbLine
 10
99.99999990347715
 20
-295.5000000000018
 30
0.0
 11
149.9999999034771
 21
-295.5000000000018
 31
0.0
  0
LINE
  5
66E1F
330
66DFF
100
AcDbEntity
  8
01アンカー
  6
ByBlock
100
AcDbLine
 10
-150.0000000965301
 20
-300.0000000000036
 30
0.0
 11
-150.0000000965301
 21
-304.5000000000018
 31
0.0
  0
LINE
  5
66E20
330
66DFF
100
AcDbEntity
  8
01アンカー
  6
ByBlock
100
AcDbLine
 10
-150.0000000965956
 20
-300.0000000000018
 30
0.0
 11
-150.0000000965956
 21
-304.5
 31
0.0
  0
LINE
  5
66E21
330
66DFF
100
AcDbEntity
  8
01アンカー
  6
ByBlock
100
AcDbLine
 10
-150.0000000965956
 20
-295.5000000000018
 30
0.0
 11
-150.0000000965956
 21
-300.0000000000018
 31
0.0
  0
LINE
  5
66E22
330
66DFF
100
AcDbEntity
  8
01アンカー
  6
ByBlock
100
AcDbLine
 10
-150.0000000000436
 20
-100.0000000000018
 30
0.0
 11
-150.0000000000436
 21
-104.5000000000018
 31
0.0
  0
LINE
  5
66E23
330
66DFF
100
AcDbEntity
  8
01アンカー
  6
ByBlock
100
AcDbLine
 10
-150.0000000000073
 20
-95.5
 30
0.0
 11
-150.0000000000073
 21
-99.99999999999818
 31
0.0
  0
LINE
  5
66E24
330
66DFF
100
AcDbEntity
  8
01アンカー
  6
ByBlock
100
AcDbLine
 10
-150.0000000000073
 20
-99.99999999999818
 30
0.0
 11
-150.0000000000073
 21
-104.4999999999981
 31
0.0
  0
LWPOLYLINE
  5
66E25
330
66DFF
100
AcDbEntity
  8
01アンカー
  6
一点鎖線(短)
 62
     4
 48
0.7
100
AcDbPolyline
 90
        4
 70
   128
 43
0.0
 10
-201.0000000482578
 20
-387.5000000000018
 10
-161.0
 20
-387.5000000000018
 42
0.4142135623730982
 10
-125.0
 20
-351.5000000000009
 10
-125.0000000000073
 20
152.2539737827301
  0
LWPOLYLINE
  5
66E26
330
66DFF
100
AcDbEntity
  8
01アンカー
  6
ByBlock
100
AcDbPolyline
 90
        4
 70
   128
 43
0.0
 10
-182.9827561538113
 20
-400.0000000000018
 10
-161.0
 20
-400.0000000000018
 42
0.4142135623730982
 10
-112.5
 20
-351.5000000000009
 10
-112.5000000000073
 20
-304.5000000000018
  0
LWPOLYLINE
  5
66E27
330
66DFF
100
AcDbEntity
  8
01アンカー
  6
ByBlock
100
AcDbPolyline
 90
        4
 70
   128
 43
0.0
 10
-182.9827561538113
 20
-375.0000000000018
 10
-161.0
 20
-375.0000000000018
 42
0.4142135623730982
 10
-137.5
 20
-351.5000000000009
 10
-137.5000000000073
 20
-304.5000000000018
  0
LINE
  5
66E28
330
66DFF
100
AcDbEntity
  8
01アンカー
  6
ByBlock
100
AcDbLine
 10
112.4999999999927
 20
-295.5000000000037
 30
0.0
 11
112.4999999999927
 21
-104.4999999999981
 31
0.0
  0
LINE
  5
66E29
330
66DFF
100
AcDbEntity
  8
01アンカー
  6
ByBlock
100
AcDbLine
 10
137.4999999999927
 20
-104.4999999999981
 30
0.0
 11
137.4999999999927
 21
-295.5000000000037
 31
0.0
  0
LINE
  5
66E2A
330
66DFF
100
AcDbEntity
  8
01アンカー
  6
一点鎖線(短)
 62
     4
 48
0.2
100
AcDbLine
 10
182.9827562068312
 20
-356.5778844688339
 30
0.0
 11
182.9827562068312
 21
-418.4221155311716
 31
0.0
  0
ELLIPSE
  5
66E2B
330
66DFF
100
AcDbEntity
  8
01アンカー
  6
ByBlock
100
AcDbEllipse
 10
182.9827561538113
 20
-387.5000000000018
 30
0.0
 11
0.0
 21
-12.5
 31
0.0
210
0.0
220
0.0
230
1.0
 40
0.48
 41
3.141592653589793
 42
6.283185307179586
  0
ELLIPSE
  5
66E2C
330
66DFF
100
AcDbEntity
  8
01アンカー
  6
ByBlock
100
AcDbEllipse
 10
182.9827561538041
 20
-387.5
 30
0.0
 11
0.0
 21
12.5
 31
0.0
210
0.0
220
0.0
230
1.0
 40
0.48
 41
3.141592653589793
 42
6.283185307179586
  0
LINE
  5
66E2D
330
66DFF
100
AcDbEntity
  8
01アンカー
  6
ByBlock
100
AcDbLine
 10
100.0000000965155
 20
-295.5000000000037
 30
0.0
 11
100.0000000965155
 21
-300.0000000000036
 31
0.0
  0
LINE
  5
66E2E
330
66DFF
100
AcDbEntity
  8
01アンカー
  6
ByBlock
100
AcDbLine
 10
150.0000000965155
 20
-295.5000000000037
 30
0.0
 11
100.0000000965155
 21
-295.5000000000037
 31
0.0
  0
LINE
  5
66E2F
330
66DFF
100
AcDbEntity
  8
01アンカー
  6
ByBlock
 48
0.7
100
AcDbLine
 10
137.4999999999927
 20
-29.99999999999818
 30
0.0
 11
137.4999999999927
 21
-95.5
 31
0.0
  0
LINE
  5
66E30
330
66DFF
100
AcDbEntity
  8
01アンカー
  6
ByBlock
 48
0.7
100
AcDbLine
 10
112.4999999999927
 20
-95.5
 30
0.0
 11
112.4999999999927
 21
-29.99999999999818
 31
0.0
  0
LINE
  5
66E31
330
66DFF
100
AcDbEntity
  8
01アンカー
  6
ByBlock
100
AcDbLine
 10
99.99999999999273
 20
-95.5
 30
0.0
 11
99.99999999999273
 21
-100.0
 31
0.0
  0
LINE
  5
66E32
330
66DFF
100
AcDbEntity
  8
01アンカー
  6
ByBlock
100
AcDbLine
 10
149.9999999999927
 20
-95.5
 30
0.0
 11
99.99999999999273
 21
-95.5
 31
0.0
  0
LINE
  5
66E33
330
66DFF
100
AcDbEntity
  8
01アンカー
  6
ByBlock
100
AcDbLine
 10
99.99999999999273
 20
-95.5
 30
0.0
 11
99.99999999999273
 21
-95.5
 31
0.0
  0
LINE
  5
66E34
330
66DFF
100
AcDbEntity
  8
01アンカー
  6
ByBlock
100
AcDbLine
 10
99.99999999999273
 20
-100.0
 30
0.0
 11
99.99999999999273
 21
-95.5
 31
0.0
  0
LINE
  5
66E35
330
66DFF
100
AcDbEntity
  8
01アンカー
  6
ByBlock
100
AcDbLine
 10
99.99999999999273
 20
-100.0
 30
0.0
 11
99.99999999999273
 21
-100.0
 31
0.0
  0
LINE
  5
66E36
330
66DFF
100
AcDbEntity
  8
01アンカー
  6
ByBlock
100
AcDbLine
 10
99.99999999999273
 20
-95.5
 30
0.0
 11
99.99999999999273
 21
-100.0
 31
0.0
  0
LINE
  5
66E37
330
66DFF
100
AcDbEntity
  8
01アンカー
  6
ByBlock
100
AcDbLine
 10
150.0000000965155
 20
-300.0000000000036
 30
0.0
 11
150.0000000965155
 21
-304.5000000000018
 31
0.0
  0
LINE
  5
66E38
330
66DFF
100
AcDbEntity
  8
01アンカー
  6
ByBlock
100
AcDbLine
 10
150.000000096581
 20
-300.0000000000018
 30
0.0
 11
150.000000096581
 21
-304.5
 31
0.0
  0
LINE
  5
66E39
330
66DFF
100
AcDbEntity
  8
01アンカー
  6
ByBlock
100
AcDbLine
 10
150.000000096581
 20
-295.5000000000018
 30
0.0
 11
150.000000096581
 21
-300.0000000000018
 31
0.0
  0
LINE
  5
66E3A
330
66DFF
100
AcDbEntity
  8
01アンカー
  6
ByBlock
100
AcDbLine
 10
150.0000000000291
 20
-100.0000000000018
 30
0.0
 11
150.0000000000291
 21
-104.5000000000018
 31
0.0
  0
LINE
  5
66E3B
330
66DFF
100
AcDbEntity
  8
01アンカー
  6
ByBlock
100
AcDbLine
 10
149.9999999999927
 20
-95.5
 30
0.0
 11
149.9999999999927
 21
-99.99999999999818
 31
0.0
  0
LINE
  5
66E3C
330
66DFF
100
AcDbEntity
  8
01アンカー
  6
ByBlock
100
AcDbLine
 10
149.9999999999927
 20
-99.99999999999818
 30
0.0
 11
149.9999999999927
 21
-104.4999999999981
 31
0.0
  0
LWPOLYLINE
  5
66E3D
330
66DFF
100
AcDbEntity
  8
01アンカー
  6
ByBlock
100
AcDbPolyline
 90
        4
 70
   128
 43
0.0
 10
182.9827561537968
 20
-400.0000000000018
 10
160.9999999999854
 20
-400.0000000000018
 42
-0.4142135623730982
 10
112.4999999999854
 20
-351.5000000000009
 10
112.4999999999927
 20
-304.5000000000018
  0
LWPOLYLINE
  5
66E3E
330
66DFF
100
AcDbEntity
  8
01アンカー
  6
ByBlock
100
AcDbPolyline
 90
        4
 70
   128
 43
0.0
 10
182.9827561537968
 20
-375.0000000000018
 10
160.9999999999854
 20
-375.0000000000018
 42
-0.4142135623730982
 10
137.4999999999854
 20
-351.5000000000009
 10
137.4999999999927
 20
-304.5000000000018
  0
LWPOLYLINE
  5
66E3F
330
66DFF
100
AcDbEntity
  8
01アンカー
  6
一点鎖線(短)
 62
     4
 48
0.7
100
AcDbPolyline
 90
        4
 70
   128
 43
0.0
 10
201.0000000482578
 20
-387.5000000000018
 10
160.9999999999854
 20
-387.5000000000018
 42
-0.4142135623730982
 10
124.9999999999854
 20
-351.5000000000009
 10
124.9999999999927
 20
152.2539737827301
  0
POINT
  5
66E40
330
66DFF
100
AcDbEntity
  8
Defpoints
100
AcDbPoint
 10
0.0000000001273293
 20
0.0
 30
0.0
  0
HATCH
  5
66E41
330
66DFF
100
AcDbEntity
  8
01アンカー
 62
    11
100
AcDbHatch
 10
0.0
 20
0.0
 30
0.0
210
0.0
220
0.0
230
1.0
  2
LINE
 70
     0
 71
     0
 91
        2
 92
        7
 72
     0
 73
     1
 93
        4
 10
-124.9999999998792
 20
100.0
 10
-136.9999999998799
 20
100.0
 10
-136.9999999998654
 20
42.00014893505538
 10
-124.9999999998783
 20
42.00014893505531
 97
        0
 92
        7
 72
     0
 73
     1
 93
        4
 10
-112.9999999998872
 20
100.0
 10
-124.9999999998792
 20
100.0
 10
-124.9999999998783
 20
42.00014893505531
 10
-112.9999999998872
 20
42.00014893505524
 97
        0
 75
     0
 76
     1
 52
30.0
 41
50.0
 77
     0
 78
     1
 53
30.0
 43
-14.99999999987267
 44
0.0
 45
-3.124999999999999
 46
5.412658773652742
 79
     0
 47
0.4444627751379907
 98
        2
 10
-128.8791190938968
 20
76.27455673499412
 10
-118.2094259711607
 20
76.71901958412127
1001
ACAD
1010
0.0
1020
0.0
1030
0.0
  0
HATCH
  5
66E42
330
66DFF
100
AcDbEntity
  8
01アンカー
 62
    11
100
AcDbHatch
 10
0.0
 20
0.0
 30
0.0
210
0.0
220
0.0
230
1.0
  2
LINE
 70
     0
 71
     0
 91
        1
 92
        7
 72
     0
 73
     1
 93
        4
 10
-112.9999999998872
 20
0.0
 10
-136.9999999998799
 20
0.0
 10
-136.9999999998799
 20
-29.99999999999818
 10
-112.9999999998872
 20
-29.99999999999818
 97
        0
 75
     0
 76
     1
 52
30.0
 41
50.0
 77
     0
 78
     1
 53
30.0
 43
0.0
 44
0.0
 45
-3.124999999999999
 46
5.412658773652742
 79
     0
 47
0.6361211184033665
 98
        1
 10
-123.8389943157021
 20
-16.20305111712287
1001
ACAD
1010
0.0
1020
0.0
1030
0.0
  0
LINE
  5
66E43
330
66DFF
100
AcDbEntity
  8
01アンカー
  6
ByBlock
100
AcDbLine
 10
-137.4999999998799
 20
-29.99999999999818
 30
0.0
 11
-112.4999999998799
 21
-29.99999999999818
 31
0.0
  0
LINE
  5
66E44
330
66DFF
100
AcDbEntity
  8
01アンカー
 48
0.5
100
AcDbLine
 10
-112.9999999998872
 20
0.0
 30
0.0
 11
-112.9999999998872
 21
-29.99999999999818
 31
0.0
  0
LINE
  5
66E45
330
66DFF
100
AcDbEntity
  8
01アンカー
 48
0.5
100
AcDbLine
 10
-136.9999999998799
 20
0.0
 30
0.0
 11
-136.9999999998799
 21
-29.99999999999818
 31
0.0
  0
LINE
  5
66E46
330
66DFF
100
AcDbEntity
  8
01アンカー
100
AcDbLine
 10
-136.9999999998799
 20
100.0
 30
0.0
 11
-136.9999999998654
 21
42.00014893505536
 31
0.0
  0
LINE
  5
66E47
330
66DFF
100
AcDbEntity
  8
01アンカー
100
AcDbLine
 10
-112.9999999998872
 20
100.0
 30
0.0
 11
-136.9999999998799
 21
100.0
 31
0.0
  0
LINE
  5
66E48
330
66DFF
100
AcDbEntity
  8
01アンカー
100
AcDbLine
 10
-112.9999999998872
 20
42.00014893505525
 30
0.0
 11
-112.9999999998872
 21
100.0
 31
0.0
  0
LWPOLYLINE
  5
66E49
330
66DFF
100
AcDbEntity
  8
00補助線
  6
Continuous
100
AcDbPolyline
 90
        4
 70
     1
 43
0.0
 10
-148.9999999998799
 20
0.0
 10
-100.9999999998799
 20
0.0
 10
-100.9999999998799
 20
4.0
 10
-148.9999999998799
 20
4.0
  0
LINE
  5
66E4A
330
66DFF
100
AcDbEntity
  8
00補助線
  6
破線(短)
100
AcDbLine
 10
-136.2499999998799
 20
-0.0000004355631518
 30
0.0
 11
-136.2499999998799
 21
4.0
 31
0.0
  0
LINE
  5
66E4B
330
66DFF
100
AcDbEntity
  8
00補助線
  6
破線(短)
100
AcDbLine
 10
-113.7499999998799
 20
0.0
 30
0.0
 11
-113.7499999998799
 21
4.0
 31
0.0
  0
INSERT
  5
66E4C
330
66DFF
100
AcDbEntity
  8
01アンカー
100
AcDbBlockReference
  2
A$C306E20C6
 10
-124.9999999998799
 20
4.0
 30
0.0
  0
INSERT
  5
66E4D
330
66DFF
100
AcDbEntity
  8
01アンカー
100
AcDbBlockReference
  2
A$C306E20C6
 10
-124.9999480368777
 20
23.00007446745144
 30
0.0
  0
HATCH
  5
66E4E
330
66DFF
100
AcDbEntity
  8
01アンカー
 62
    11
100
AcDbHatch
 10
0.0
 20
0.0
 30
0.0
210
0.0
220
0.0
230
1.0
  2
LINE
 70
     0
 71
     0
 91
        2
 92
        7
 72
     0
 73
     1
 93
        4
 10
124.9999999999908
 20
100.0
 10
112.99999999999
 20
100.0
 10
113.0000000000045
 20
42.00014893505538
 10
124.9999999999916
 20
42.00014893505531
 97
        0
 92
        7
 72
     0
 73
     1
 93
        4
 10
136.9999999999828
 20
100.0
 10
124.9999999999908
 20
100.0
 10
124.9999999999916
 20
42.00014893505531
 10
136.9999999999828
 20
42.00014893505524
 97
        0
 75
     0
 76
     1
 52
30.0
 41
50.0
 77
     0
 78
     1
 53
30.0
 43
234.9999999999973
 44
0.0
 45
-3.124999999999999
 46
5.412658773652742
 79
     0
 47
0.4444627751379907
 98
        2
 10
121.1208809059731
 20
76.27455673499412
 10
131.7905740287093
 20
76.71901958412127
1001
ACAD
1010
0.0
1020
0.0
1030
0.0
  0
HATCH
  5
66E4F
330
66DFF
100
AcDbEntity
  8
01アンカー
 62
    11
100
AcDbHatch
 10
0.0
 20
0.0
 30
0.0
210
0.0
220
0.0
230
1.0
  2
LINE
 70
     0
 71
     0
 91
        1
 92
        7
 72
     0
 73
     1
 93
        4
 10
136.9999999999828
 20
0.0
 10
112.99999999999
 20
0.0
 10
112.99999999999
 20
-29.99999999999818
 10
136.9999999999828
 20
-29.99999999999818
 97
        0
 75
     0
 76
     1
 52
30.0
 41
50.0
 77
     0
 78
     1
 53
30.0
 43
249.99999999987
 44
0.0
 45
-3.124999999999999
 46
5.412658773652742
 79
     0
 47
0.6361211184033665
 98
        1
 10
126.1610056841678
 20
-16.20305111712287
1001
ACAD
1010
0.0
1020
0.0
1030
0.0
  0
LINE
  5
66E50
330
66DFF
100
AcDbEntity
  8
01アンカー
  6
ByBlock
100
AcDbLine
 10
112.49999999999
 20
-29.99999999999818
 30
0.0
 11
137.49999999999
 21
-29.99999999999818
 31
0.0
  0
LINE
  5
66E51
330
66DFF
100
AcDbEntity
  8
01アンカー
 48
0.5
100
AcDbLine
 10
136.9999999999828
 20
0.0
 30
0.0
 11
136.9999999999828
 21
-29.99999999999818
 31
0.0
  0
LINE
  5
66E52
330
66DFF
100
AcDbEntity
  8
01アンカー
 48
0.5
100
AcDbLine
 10
112.99999999999
 20
0.0
 30
0.0
 11
112.99999999999
 21
-29.99999999999818
 31
0.0
  0
LINE
  5
66E53
330
66DFF
100
AcDbEntity
  8
01アンカー
100
AcDbLine
 10
112.99999999999
 20
100.0
 30
0.0
 11
113.0000000000045
 21
42.00014893505536
 31
0.0
  0
LINE
  5
66E54
330
66DFF
100
AcDbEntity
  8
01アンカー
100
AcDbLine
 10
136.9999999999828
 20
100.0
 30
0.0
 11
112.99999999999
 21
100.0
 31
0.0
  0
LINE
  5
66E55
330
66DFF
100
AcDbEntity
  8
01アンカー
100
AcDbLine
 10
136.9999999999828
 20
42.00014893505525
 30
0.0
 11
136.9999999999828
 21
100.0
 31
0.0
  0
LWPOLYLINE
  5
66E56
330
66DFF
100
AcDbEntity
  8
00補助線
  6
Continuous
100
AcDbPolyline
 90
        4
 70
     1
 43
0.0
 10
100.99999999999
 20
0.0
 10
148.99999999999
 20
0.0
 10
148.99999999999
 20
4.0
 10
100.99999999999
 20
4.0
  0
LINE
  5
66E57
330
66DFF
100
AcDbEntity
  8
00補助線
  6
破線(短)
100
AcDbLine
 10
113.74999999999
 20
-0.0000004355631518
 30
0.0
 11
113.74999999999
 21
4.0
 31
0.0
  0
LINE
  5
66E58
330
66DFF
100
AcDbEntity
  8
00補助線
  6
破線(短)
100
AcDbLine
 10
136.24999999999
 20
0.0
 30
0.0
 11
136.24999999999
 21
4.0
 31
0.0
  0
INSERT
  5
66E59
330
66DFF
100
AcDbEntity
  8
01アンカー
100
AcDbBlockReference
  2
A$C306E20C6
 10
124.99999999999
 20
4.0
 30
0.0
  0
INSERT
  5
66E5A
330
66DFF
100
AcDbEntity
  8
01アンカー
100
AcDbBlockReference
  2
A$C306E20C6
 10
125.0000519629923
 20
23.00007446745144
 30
0.0
  0
ENDBLK
  5
66E5B
330
66DFF
100
AcDbEntity
  8
0
100
AcDbBlockEnd
  0
BLOCK
  5
684BF
330
684BE
100
AcDbEntity
  8
0
100
AcDbBlockBegin
  2
*D8
 70
     1
 10
0.0
 20
0.0
 30
0.0
  3
*D8
  1

  0
LINE
  5
68A9E
330
684BE
100
AcDbEntity
  8
00寸法
  6
Continuous
 62
     0
100
AcDbLine
 10
11122.48080473034
 20
4254.942107930117
 30
0.0
 11
11032.48080473034
 21
4254.942107930117
 31
0.0
  0
LINE
  5
68A9F
330
684BE
100
AcDbEntity
  8
00寸法
  6
Continuous
 62
     0
100
AcDbLine
 10
11122.48080473034
 20
2854.942107930117
 30
0.0
 11
11032.48080473034
 21
2854.942107930117
 31
0.0
  0
LINE
  5
68AA0
330
684BE
100
AcDbEntity
  8
00寸法
  6
Continuous
 62
     0
370
    -2
100
AcDbLine
 10
11047.48080473034
 20
4209.942107930117
 30
0.0
 11
11047.48080473034
 21
2899.942107930117
 31
0.0
  0
INSERT
  5
68AA1
330
684BE
100
AcDbEntity
  8
00寸法
  6
Continuous
 62
     0
370
    -2
100
AcDbBlockReference
  2
_Open
 10
11047.48080473034
 20
4254.942107930117
 30
0.0
 41
45.0
 42
45.0
 43
45.0
 50
90.0
  0
INSERT
  5
68AA2
330
684BE
100
AcDbEntity
  8
00寸法
  6
Continuous
 62
     0
370
    -2
100
AcDbBlockReference
  2
_Open
 10
11047.48080473034
 20
2854.942107930117
 30
0.0
 41
45.0
 42
45.0
 43
45.0
 50
270.0
  0
MTEXT
  5
68AA3
330
684BE
100
AcDbEntity
  8
00寸法
  6
Continuous
 62
     0
100
AcDbMText
 10
11007.20161691308
 20
3554.942107930119
 30
0.0
 40
52.5
 41
0.0
 46
0.0
 71
     5
 72
     1
  1
\A1;①(基礎の長さ)
  7
ゴシック
 11
0.0000000000000001
 21
1.0
 31
0.0
 73
     1
 44
1.0
  0
POINT
  5
68AA4
330
684BE
100
AcDbEntity
  8
Defpoints
  6
Continuous
 62
     0
100
AcDbPoint
 10
11220.92311260326
 20
4254.942107930117
 30
0.0
  0
POINT
  5
68AA5
330
684BE
100
AcDbEntity
  8
Defpoints
  6
Continuous
 62
     0
100
AcDbPoint
 10
11211.67311288376
 20
2854.942107930117
 30
0.0
  0
POINT
  5
68AA6
330
684BE
100
AcDbEntity
  8
Defpoints
  6
Continuous
 62
     0
100
AcDbPoint
 10
11047.48080473034
 20
2854.942107930117
 30
0.0
  0
ENDBLK
  5
684C0
330
684BE
100
AcDbEntity
  8
0
100
AcDbBlockEnd
  0
BLOCK
  5
684CB
330
684CA
100
AcDbEntity
  8
0
100
AcDbBlockBegin
  2
*D9
 70
     1
 10
0.0
 20
0.0
 30
0.0
  3
*D9
  1

  0
LINE
  5
68AA7
330
684CA
100
AcDbEntity
  8
00寸法
  6
Continuous
 62
     0
100
AcDbLine
 10
11209.92311285259
 20
2649.66995651384
 30
0.0
 11
11209.92311285259
 21
2529.66995651384
 31
0.0
  0
LINE
  5
68AA8
330
684CA
100
AcDbEntity
  8
00寸法
  6
Continuous
 62
     0
100
AcDbLine
 10
11809.92310151926
 20
2649.66995651384
 30
0.0
 11
11809.92310151926
 21
2529.66995651384
 31
0.0
  0
LINE
  5
68AA9
330
684CA
100
AcDbEntity
  8
00寸法
  6
Continuous
 62
     0
370
    -2
100
AcDbLine
 10
11254.92311285259
 20
2544.66995651384
 30
0.0
 11
11764.92310151926
 21
2544.66995651384
 31
0.0
  0
INSERT
  5
68AAA
330
684CA
100
AcDbEntity
  8
00寸法
  6
Continuous
 62
     0
370
    -2
100
AcDbBlockReference
  2
_Open
 10
11209.92311285259
 20
2544.66995651384
 30
0.0
 41
45.0
 42
45.0
 43
45.0
 50
180.0
  0
INSERT
  5
68AAB
330
684CA
100
AcDbEntity
  8
00寸法
  6
Continuous
 62
     0
370
    -2
100
AcDbBlockReference
  2
_Open
 10
11809.92310151926
 20
2544.66995651384
 30
0.0
 41
45.0
 42
45.0
 43
45.0
  0
MTEXT
  5
68AAC
330
684CA
100
AcDbEntity
  8
00寸法
  6
Continuous
 62
     0
100
AcDbMText
 10
11509.92310718592
 20
2584.949144331099
 30
0.0
 40
52.5
 41
0.0
 46
0.0
 71
     5
 72
     1
  1
\A1;①(基礎幅)
  7
ゴシック
 73
     1
 44
1.0
  0
POINT
  5
68AAD
330
684CA
100
AcDbEntity
  8
Defpoints
  6
Continuous
 62
     0
100
AcDbPoint
 10
11209.92311285259
 20
2854.942107930117
 30
0.0
  0
POINT
  5
68AAE
330
684CA
100
AcDbEntity
  8
Defpoints
  6
Continuous
 62
     0
100
AcDbPoint
 10
11809.92310151926
 20
2854.942107930117
 30
0.0
  0
POINT
  5
68AAF
330
684CA
100
AcDbEntity
  8
Defpoints
  6
Continuous
 62
     0
100
AcDbPoint
 10
11809.92310151926
 20
2544.66995651384
 30
0.0
  0
ENDBLK
  5
684CC
330
684CA
100
AcDbEntity
  8
0
100
AcDbBlockEnd
  0
BLOCK
  5
684D7
330
684D6
100
AcDbEntity
  8
0
100
AcDbBlockBegin
  2
*D10
 70
     1
 10
0.0
 20
0.0
 30
0.0
  3
*D10
  1

  0
LINE
  5
6958F
330
684D6
100
AcDbEntity
  8
00寸法
 62
     0
100
AcDbLine
 10
11122.48080473033
 20
4354.942107930117
 30
0.0
 11
11032.48080473033
 21
4354.942107930117
 31
0.0
  0
LINE
  5
69590
330
684D6
100
AcDbEntity
  8
00寸法
 62
     0
100
AcDbLine
 10
11122.48080473033
 20
4254.942107930117
 30
0.0
 11
11032.48080473033
 21
4254.942107930117
 31
0.0
  0
LINE
  5
69591
330
684D6
100
AcDbEntity
  8
00寸法
 62
     0
370
    -2
100
AcDbLine
 10
11047.48080473033
 20
4399.942107930117
 30
0.0
 11
11047.48080473033
 21
4444.942107930117
 31
0.0
  0
LINE
  5
69592
330
684D6
100
AcDbEntity
  8
00寸法
 62
     0
370
    -2
100
AcDbLine
 10
11047.48080473033
 20
4209.942107930117
 30
0.0
 11
11047.48080473033
 21
4164.942107930118
 31
0.0
  0
INSERT
  5
69593
330
684D6
100
AcDbEntity
  8
00寸法
 62
     0
370
    -2
100
AcDbBlockReference
  2
_Open
 10
11047.48080473033
 20
4354.942107930117
 30
0.0
 41
45.0
 42
45.0
 43
45.0
 50
270.0
  0
INSERT
  5
69594
330
684D6
100
AcDbEntity
  8
00寸法
 62
     0
370
    -2
100
AcDbBlockReference
  2
_Open
 10
11047.48080473033
 20
4254.942107930117
 30
0.0
 41
45.0
 42
45.0
 43
45.0
 50
90.0
  0
MTEXT
  5
69595
330
684D6
100
AcDbEntity
  8
00寸法
 62
     0
100
AcDbMText
 10
11007.20161691307
 20
4304.942107930119
 30
0.0
 40
52.5
 41
0.0
 46
0.0
 71
     5
 72
     1
  1
\A1;④(　　)㎜
  7
ゴシック
 11
0.0000000000000001
 21
1.0
 31
0.0
 73
     1
 44
1.0
  0
POINT
  5
69596
330
684D6
100
AcDbEntity
  8
Defpoints
 62
     0
100
AcDbPoint
 10
11372.92310718604
 20
4354.942107930117
 30
0.0
  0
POINT
  5
69597
330
684D6
100
AcDbEntity
  8
Defpoints
 62
     0
100
AcDbPoint
 10
11220.92311260326
 20
4254.942107930117
 30
0.0
  0
POINT
  5
69598
330
684D6
100
AcDbEntity
  8
Defpoints
 62
     0
100
AcDbPoint
 10
11047.48080473033
 20
4254.942107930117
 30
0.0
  0
ENDBLK
  5
684D8
330
684D6
100
AcDbEntity
  8
0
100
AcDbBlockEnd
  0
BLOCK
  5
685A1
330
685A0
100
AcDbEntity
  8
0
100
AcDbBlockBegin
  2
*D11
 70
     1
 10
0.0
 20
0.0
 30
0.0
  3
*D11
  1

  0
LINE
  5
68AC3
330
685A0
100
AcDbEntity
  8
00寸法
  6
Continuous
 62
     0
100
AcDbLine
 10
11152.48080473033
 20
5880.356286388138
 30
0.0
 11
11032.48080473033
 21
5880.356286388138
 31
0.0
  0
LINE
  5
68AC4
330
685A0
100
AcDbEntity
  8
00寸法
  6
Continuous
 62
     0
100
AcDbLine
 10
11152.48080473033
 20
5280.356297721471
 30
0.0
 11
11032.48080473033
 21
5280.356297721471
 31
0.0
  0
LINE
  5
68AC5
330
685A0
100
AcDbEntity
  8
00寸法
  6
Continuous
 62
     0
370
    -2
100
AcDbLine
 10
11047.48080473033
 20
5835.356286388138
 30
0.0
 11
11047.48080473033
 21
5325.356297721471
 31
0.0
  0
INSERT
  5
68AC6
330
685A0
100
AcDbEntity
  8
00寸法
  6
Continuous
 62
     0
370
    -2
100
AcDbBlockReference
  2
_Open
 10
11047.48080473033
 20
5880.356286388138
 30
0.0
 41
45.0
 42
45.0
 43
45.0
 50
90.0
  0
INSERT
  5
68AC7
330
685A0
100
AcDbEntity
  8
00寸法
  6
Continuous
 62
     0
370
    -2
100
AcDbBlockReference
  2
_Open
 10
11047.48080473033
 20
5280.356297721471
 30
0.0
 41
45.0
 42
45.0
 43
45.0
 50
270.0
  0
MTEXT
  5
68AC8
330
685A0
100
AcDbEntity
  8
00寸法
  6
Continuous
 62
     0
100
AcDbMText
 10
11007.20161691307
 20
5580.356292054807
 30
0.0
 40
52.5
 41
0.0
 46
0.0
 71
     5
 72
     1
  1
\A1;①(基礎幅)
  7
ゴシック
 11
0.0000000000000001
 21
1.0
 31
0.0
 73
     1
 44
1.0
  0
POINT
  5
68AC9
330
685A0
100
AcDbEntity
  8
Defpoints
  6
Continuous
 62
     0
100
AcDbPoint
 10
11209.92311285259
 20
5880.356286388138
 30
0.0
  0
POINT
  5
68ACA
330
685A0
100
AcDbEntity
  8
Defpoints
  6
Continuous
 62
     0
100
AcDbPoint
 10
11209.92311285259
 20
5280.356297721471
 30
0.0
  0
POINT
  5
68ACB
330
685A0
100
AcDbEntity
  8
Defpoints
  6
Continuous
 62
     0
100
AcDbPoint
 10
11047.48080473033
 20
5280.356297721471
 30
0.0
  0
ENDBLK
  5
685A2
330
685A0
100
AcDbEntity
  8
0
100
AcDbBlockEnd
  0
BLOCK
  5
685AD
330
685AC
100
AcDbEntity
  8
0
100
AcDbBlockBegin
  2
*D12
 70
     1
 10
0.0
 20
0.0
 30
0.0
  3
*D12
  1

  0
LINE
  5
68ACC
330
685AC
100
AcDbEntity
  8
00寸法
  6
Continuous
 62
     0
100
AcDbLine
 10
11209.92311285259
 20
5199.260040161337
 30
0.0
 11
11209.92311285259
 21
5079.260040161337
 31
0.0
  0
LINE
  5
68ACD
330
685AC
100
AcDbEntity
  8
00寸法
  6
Continuous
 62
     0
100
AcDbLine
 10
11809.92310151926
 20
5199.260040161337
 30
0.0
 11
11809.92310151926
 21
5079.260040161337
 31
0.0
  0
LINE
  5
68ACE
330
685AC
100
AcDbEntity
  8
00寸法
  6
Continuous
 62
     0
370
    -2
100
AcDbLine
 10
11254.92311285259
 20
5094.260040161336
 30
0.0
 11
11764.92310151926
 21
5094.260040161336
 31
0.0
  0
INSERT
  5
68ACF
330
685AC
100
AcDbEntity
  8
00寸法
  6
Continuous
 62
     0
370
    -2
100
AcDbBlockReference
  2
_Open
 10
11209.92311285259
 20
5094.260040161336
 30
0.0
 41
45.0
 42
45.0
 43
45.0
 50
180.0
  0
INSERT
  5
68AD0
330
685AC
100
AcDbEntity
  8
00寸法
  6
Continuous
 62
     0
370
    -2
100
AcDbBlockReference
  2
_Open
 10
11809.92310151926
 20
5094.260040161336
 30
0.0
 41
45.0
 42
45.0
 43
45.0
  0
MTEXT
  5
68AD1
330
685AC
100
AcDbEntity
  8
00寸法
  6
Continuous
 62
     0
100
AcDbMText
 10
11509.92310718592
 20
5134.539227978596
 30
0.0
 40
52.5
 41
0.0
 46
0.0
 71
     5
 72
     1
  1
\A1;①(基礎幅)
  7
ゴシック
 73
     1
 44
1.0
  0
POINT
  5
68AD2
330
685AC
100
AcDbEntity
  8
Defpoints
  6
Continuous
 62
     0
100
AcDbPoint
 10
11209.92311285259
 20
5280.356297721473
 30
0.0
  0
POINT
  5
68AD3
330
685AC
100
AcDbEntity
  8
Defpoints
  6
Continuous
 62
     0
100
AcDbPoint
 10
11809.92310151926
 20
5280.356297721473
 30
0.0
  0
POINT
  5
68AD4
330
685AC
100
AcDbEntity
  8
Defpoints
  6
Continuous
 62
     0
100
AcDbPoint
 10
11809.92310151926
 20
5094.260040161336
 30
0.0
  0
ENDBLK
  5
685AE
330
685AC
100
AcDbEntity
  8
0
100
AcDbBlockEnd
  0
BLOCK
  5
68628
330
68627
100
AcDbEntity
  8
0
100
AcDbBlockBegin
  2
*D13
 70
     1
 10
0.0
 20
0.0
 30
0.0
  3
*D13
  1

  0
LINE
  5
695A3
330
68627
100
AcDbEntity
  8
00寸法
 62
     0
100
AcDbLine
 10
13233.69481074773
 20
4632.688243674078
 30
0.0
 11
13453.21205478695
 21
4632.688243674078
 31
0.0
  0
LINE
  5
695A4
330
68627
100
AcDbEntity
  8
00寸法
 62
     0
100
AcDbLine
 10
13187.71205478695
 20
5132.688243674078
 30
0.0
 11
13453.21205478695
 21
5132.688243674078
 31
0.0
  0
LINE
  5
695A5
330
68627
100
AcDbEntity
  8
00寸法
 62
     0
370
    -2
100
AcDbLine
 10
13438.21205478695
 20
4677.688243674078
 30
0.0
 11
13438.21205478695
 21
5087.688243674078
 31
0.0
  0
INSERT
  5
695A6
330
68627
100
AcDbEntity
  8
00寸法
 62
     0
370
    -2
100
AcDbBlockReference
  2
_Open
 10
13438.21205478695
 20
4632.688243674078
 30
0.0
 41
45.0
 42
45.0
 43
45.0
 50
270.0
  0
INSERT
  5
695A7
330
68627
100
AcDbEntity
  8
00寸法
 62
     0
370
    -2
100
AcDbBlockReference
  2
_Open
 10
13438.21205478695
 20
5132.688243674078
 30
0.0
 41
45.0
 42
45.0
 43
45.0
 50
90.0
  0
MTEXT
  5
695A8
330
68627
100
AcDbEntity
  8
00寸法
 62
     0
100
AcDbMText
 10
13397.93286696969
 20
4882.688243674079
 30
0.0
 40
52.5
 41
0.0
 46
0.0
 71
     5
 72
     1
  1
\A1;②
  7
ゴシック
 11
0.0000000000000001
 21
1.0
 31
0.0
 73
     1
 44
1.0
  0
POINT
  5
695A9
330
68627
100
AcDbEntity
  8
Defpoints
 62
     0
100
AcDbPoint
 10
13196.19481074773
 20
4632.688243674078
 30
0.0
  0
POINT
  5
695AA
330
68627
100
AcDbEntity
  8
Defpoints
 62
     0
100
AcDbPoint
 10
13150.21205478695
 20
5132.688243674078
 30
0.0
  0
POINT
  5
695AB
330
68627
100
AcDbEntity
  8
Defpoints
 62
     0
100
AcDbPoint
 10
13438.21205478695
 20
5132.688243674078
 30
0.0
  0
ENDBLK
  5
68629
330
68627
100
AcDbEntity
  8
0
100
AcDbBlockEnd
  0
BLOCK
  5
68634
330
68633
100
AcDbEntity
  8
0
100
AcDbBlockBegin
  2
*D14
 70
     1
 10
0.0
 20
0.0
 30
0.0
  3
*D14
  1

  0
LINE
  5
695AC
330
68633
100
AcDbEntity
  8
00寸法
 62
     0
100
AcDbLine
 10
12788.71205478695
 20
5132.688243674076
 30
0.0
 11
12623.21205478697
 21
5132.688243674076
 31
0.0
  0
LINE
  5
695AD
330
68633
100
AcDbEntity
  8
00寸法
 62
     0
100
AcDbLine
 10
12788.21205478695
 20
5002.688243674078
 30
0.0
 11
12623.21205478697
 21
5002.688243674078
 31
0.0
  0
LINE
  5
695AE
330
68633
100
AcDbEntity
  8
00寸法
 62
     0
370
    -2
100
AcDbLine
 10
12638.21205478697
 20
5177.688243674076
 30
0.0
 11
12638.21205478697
 21
5222.688243674077
 31
0.0
  0
LINE
  5
695AF
330
68633
100
AcDbEntity
  8
00寸法
 62
     0
370
    -2
100
AcDbLine
 10
12638.21205478697
 20
4957.688243674078
 30
0.0
 11
12638.21205478697
 21
4912.688243674078
 31
0.0
  0
INSERT
  5
695B0
330
68633
100
AcDbEntity
  8
00寸法
 62
     0
370
    -2
100
AcDbBlockReference
  2
_Open
 10
12638.21205478697
 20
5132.688243674076
 30
0.0
 41
45.0
 42
45.0
 43
45.0
 50
270.0
  0
INSERT
  5
695B1
330
68633
100
AcDbEntity
  8
00寸法
 62
     0
370
    -2
100
AcDbBlockReference
  2
_Open
 10
12638.21205478697
 20
5002.688243674078
 30
0.0
 41
45.0
 42
45.0
 43
45.0
 50
90.0
  0
MTEXT
  5
695B2
330
68633
100
AcDbEntity
  8
00寸法
 62
     0
100
AcDbMText
 10
12597.9328669697
 20
5067.688243674079
 30
0.0
 40
52.5
 41
0.0
 46
0.0
 71
     5
 72
     1
  1
\A1;⑤(　　)㎜
  7
ゴシック
 11
0.0000000000000001
 21
1.0
 31
0.0
 73
     1
 44
1.0
  0
POINT
  5
695B3
330
68633
100
AcDbEntity
  8
Defpoints
 62
     0
100
AcDbPoint
 10
12826.21205478695
 20
5132.688243674076
 30
0.0
  0
POINT
  5
695B4
330
68633
100
AcDbEntity
  8
Defpoints
 62
     0
100
AcDbPoint
 10
12825.71205478695
 20
5002.688243674078
 30
0.0
  0
POINT
  5
695B5
330
68633
100
AcDbEntity
  8
Defpoints
 62
     0
100
AcDbPoint
 10
12638.21205478697
 20
5002.688243674078
 30
0.0
  0
ENDBLK
  5
68635
330
68633
100
AcDbEntity
  8
0
100
AcDbBlockEnd
  0
BLOCK
  5
687F6
330
687F5
100
AcDbEntity
  8
0
100
AcDbBlockBegin
  2
*D15
 70
     1
 10
0.0
 20
0.0
 30
0.0
  3
*D15
  1

  0
LINE
  5
6890E
330
687F5
100
AcDbEntity
  8
00寸法
 62
     0
100
AcDbLine
 10
13214.36362723517
 20
5977.606732816105
 30
0.0
 11
13353.21205195364
 21
5977.606732816105
 31
0.0
  0
LINE
  5
6890F
330
687F5
100
AcDbEntity
  8
00寸法
 62
     0
100
AcDbLine
 10
13216.53506404873
 20
5677.606738482751
 30
0.0
 11
13353.21205195364
 21
5677.606738482751
 31
0.0
  0
LINE
  5
68910
330
687F5
100
AcDbEntity
  8
00寸法
 62
     0
370
    -2
100
AcDbLine
 10
13338.21205195364
 20
5932.606732816104
 30
0.0
 11
13338.21205195364
 21
5722.606738482751
 31
0.0
  0
INSERT
  5
68911
330
687F5
100
AcDbEntity
  8
00寸法
 62
     0
370
    -2
100
AcDbBlockReference
  2
_Open
 10
13338.21205195364
 20
5977.606732816105
 30
0.0
 41
45.0
 42
45.0
 43
45.0
 50
90.0
  0
INSERT
  5
68912
330
687F5
100
AcDbEntity
  8
00寸法
 62
     0
370
    -2
100
AcDbBlockReference
  2
_Open
 10
13338.21205195364
 20
5677.606738482751
 30
0.0
 41
45.0
 42
45.0
 43
45.0
 50
270.0
  0
MTEXT
  5
68913
330
687F5
100
AcDbEntity
  8
00寸法
 62
     0
100
AcDbMText
 10
13297.93286413637
 20
5827.606735649429
 30
0.0
 40
52.5
 41
0.0
 46
0.0
 71
     5
 72
     1
  1
\A1;②
  7
ゴシック
 11
0.0000000000000001
 21
1.0
 31
0.0
 73
     1
 44
1.0
  0
POINT
  5
68914
330
687F5
100
AcDbEntity
  8
Defpoints
 62
     0
100
AcDbPoint
 10
13176.86362723517
 20
5977.606732816105
 30
0.0
  0
POINT
  5
68915
330
687F5
100
AcDbEntity
  8
Defpoints
 62
     0
100
AcDbPoint
 10
13179.03506404873
 20
5677.606738482751
 30
0.0
  0
POINT
  5
68916
330
687F5
100
AcDbEntity
  8
Defpoints
 62
     0
100
AcDbPoint
 10
13338.21205195364
 20
5677.606738482751
 30
0.0
  0
ENDBLK
  5
687F7
330
687F5
100
AcDbEntity
  8
0
100
AcDbBlockEnd
  0
BLOCK
  5
6880E
330
6880D
100
AcDbEntity
  8
0
100
AcDbBlockBegin
  2
*D16
 70
     1
 10
0.0
 20
0.0
 30
0.0
  3
*D16
  1

  0
LINE
  5
68917
330
6880D
100
AcDbEntity
  8
00寸法
 62
     0
100
AcDbLine
 10
13138.21205195364
 20
6053.758308097637
 30
0.0
 11
13138.21205195364
 21
6192.606732816106
 31
0.0
  0
LINE
  5
68918
330
6880D
100
AcDbEntity
  8
00寸法
 62
     0
100
AcDbLine
 10
12838.21205762028
 20
6055.929744911196
 30
0.0
 11
12838.21205762028
 21
6192.606732816106
 31
0.0
  0
LINE
  5
68919
330
6880D
100
AcDbEntity
  8
00寸法
 62
     0
370
    -2
100
AcDbLine
 10
13093.21205195364
 20
6177.606732816105
 30
0.0
 11
12883.21205762028
 21
6177.606732816105
 31
0.0
  0
INSERT
  5
6891A
330
6880D
100
AcDbEntity
  8
00寸法
 62
     0
370
    -2
100
AcDbBlockReference
  2
_Open
 10
13138.21205195364
 20
6177.606732816105
 30
0.0
 41
45.0
 42
45.0
 43
45.0
  0
INSERT
  5
6891B
330
6880D
100
AcDbEntity
  8
00寸法
 62
     0
370
    -2
100
AcDbBlockReference
  2
_Open
 10
12838.21205762028
 20
6177.606732816105
 30
0.0
 41
45.0
 42
45.0
 43
45.0
 50
180.0
  0
MTEXT
  5
6891C
330
6880D
100
AcDbEntity
  8
00寸法
 62
     0
100
AcDbMText
 10
12988.21205478696
 20
6217.885920633364
 30
0.0
 40
52.5
 41
0.0
 46
0.0
 71
     5
 72
     1
  1
\A1;②
  7
ゴシック
 73
     1
 44
1.0
  0
POINT
  5
6891D
330
6880D
100
AcDbEntity
  8
Defpoints
 62
     0
100
AcDbPoint
 10
13138.21205195364
 20
6016.258308097636
 30
0.0
  0
POINT
  5
6891E
330
6880D
100
AcDbEntity
  8
Defpoints
 62
     0
100
AcDbPoint
 10
12838.21205762028
 20
6018.429744911196
 30
0.0
  0
POINT
  5
6891F
330
6880D
100
AcDbEntity
  8
Defpoints
 62
     0
100
AcDbPoint
 10
12838.21205762028
 20
6177.606732816105
 30
0.0
  0
ENDBLK
  5
6880F
330
6880D
100
AcDbEntity
  8
0
100
AcDbBlockEnd
  0
BLOCK
  5
68891
330
68890
100
AcDbEntity
  8
0
100
AcDbBlockBegin
  2
*D17
 70
     1
 10
0.0
 20
0.0
 30
0.0
  3
*D17
  1

  0
LINE
  5
6954E
330
68890
100
AcDbEntity
  8
00寸法
  6
Continuous
 62
     0
100
AcDbLine
 10
11965.8962328508
 20
4254.942107930117
 30
0.0
 11
12130.8962328508
 21
4254.942107930117
 31
0.0
  0
LINE
  5
6954F
330
68890
100
AcDbEntity
  8
00寸法
  6
Continuous
 62
     0
100
AcDbLine
 10
11988.35707166111
 20
3837.442107930117
 30
0.0
 11
12130.8962328508
 21
3837.442107930117
 31
0.0
  0
LINE
  5
69550
330
68890
100
AcDbEntity
  8
00寸法
  6
Continuous
 62
     0
370
    -2
100
AcDbLine
 10
12115.8962328508
 20
4209.942107930117
 30
0.0
 11
12115.8962328508
 21
3882.442107930117
 31
0.0
  0
INSERT
  5
69551
330
68890
100
AcDbEntity
  8
00寸法
  6
Continuous
 62
     0
370
    -2
100
AcDbBlockReference
  2
_Open
 10
12115.8962328508
 20
4254.942107930117
 30
0.0
 41
45.0
 42
45.0
 43
45.0
 50
90.0
  0
INSERT
  5
69552
330
68890
100
AcDbEntity
  8
00寸法
  6
Continuous
 62
     0
370
    -2
100
AcDbBlockReference
  2
_Open
 10
12115.8962328508
 20
3837.442107930117
 30
0.0
 41
45.0
 42
45.0
 43
45.0
 50
270.0
  0
MTEXT
  5
69553
330
68890
100
AcDbEntity
  8
00寸法
  6
Continuous
 62
     0
100
AcDbMText
 10
12075.61704503354
 20
4046.192107930119
 30
0.0
 40
52.5
 41
0.0
 46
0.0
 71
     5
 72
     1
  1
\A1;⑩(　　)㎜
  7
ゴシック
 11
0.0000000000000001
 21
1.0
 31
0.0
 73
     1
 44
1.0
  0
POINT
  5
69554
330
68890
100
AcDbEntity
  8
Defpoints
  6
Continuous
 62
     0
100
AcDbPoint
 10
11798.92310176859
 20
4254.942107930117
 30
0.0
  0
POINT
  5
69555
330
68890
100
AcDbEntity
  8
Defpoints
  6
Continuous
 62
     0
100
AcDbPoint
 10
11950.85707166111
 20
3837.442107930117
 30
0.0
  0
POINT
  5
69556
330
68890
100
AcDbEntity
  8
Defpoints
  6
Continuous
 62
     0
100
AcDbPoint
 10
12115.8962328508
 20
3837.442107930117
 30
0.0
  0
ENDBLK
  5
68892
330
68890
100
AcDbEntity
  8
0
100
AcDbBlockEnd
  0
BLOCK
  5
68A32
330
68A2F
100
AcDbEntity
  8
0
100
AcDbBlockBegin
  2
A$C00D50416
 70
     0
 10
0.0
 20
0.0
 30
0.0
  3
A$C00D50416
  1

  0
HATCH
  5
68A33
330
68A2F
100
AcDbEntity
  8
04文字
 62
     7
100
AcDbHatch
 10
0.0
 20
0.0
 30
0.0
210
0.0
220
0.0
230
1.0
  2
SOLID
 70
     1
 71
     1
 91
        1
 92
        1
 93
       28
 72
     1
 10
-25.44874076383349
 20
-26.41423410468997
 11
-36.49704079754156
 21
-31.88243830811916
 72
     1
 10
-36.49704079754156
 20
-31.88243830811916
 11
-43.27833858861413
 21
-34.70035826995445
 72
     1
 10
-43.27833858861413
 20
-34.70035826995445
 11
-48.74023137748008
 21
-35.58040821885516
 72
     1
 10
-48.74023137748008
 20
-35.58040821885516
 11
-60.83745539321535
 21
-36.60121602988147
 72
     1
 10
-60.83745539321535
 20
-36.60121602988147
 11
-74.2779031603859
 21
-36.84383637752035
 72
     1
 10
-74.2779031603859
 20
-36.84383637752035
 11
-82.54174485038493
 21
-38.14354897677549
 72
     1
 10
-82.54174485038493
 20
-38.14354897677549
 11
-89.62448295883769
 21
-40.2975542551394
 72
     1
 10
-89.62448295883769
 20
-40.2975542551394
 11
-96.88567980757216
 21
-43.0635233461362
 72
     1
 10
-96.88567980757216
 20
-43.0635233461362
 11
-102.6939005531276
 21
-46.45479174589854
 72
     1
 10
-102.6939005531276
 20
-46.45479174589854
 11
-111.0508611361692
 21
-53.04510838731949
 72
     1
 10
-111.0508611361692
 20
-53.04510838731949
 11
-120.3459848790735
 21
-60.52800935033883
 72
     1
 10
-120.3459848790735
 20
-60.52800935033883
 11
-128.2780849973605
 21
-66.74770713160978
 72
     1
 10
-128.2780849973605
 20
-66.74770713160978
 11
-134.4742723110212
 21
-71.73691631574548
 72
     1
 10
-134.4742723110212
 20
-71.73691631574548
 11
-136.7935675891349
 21
-73.92142383934697
 72
     1
 10
-136.7935675891349
 20
-73.92142383934697
 11
-138.8740103635937
 21
-76.25246423039062
 72
     1
 10
-138.8740103635937
 20
-76.25246423039062
 11
-141.1878417552343
 21
-78.68498255765008
 72
     1
 10
-141.1878417552343
 20
-78.68498255765008
 11
-106.2830199972886
 21
-57.23614098178223
 72
     1
 10
-106.2830199972886
 20
-57.23614098178223
 11
-98.52220593835227
 21
-54.6146119225159
 72
     1
 10
-98.52220593835227
 20
-54.6146119225159
 11
-93.57919354598379
 21
-53.29840801038518
 72
     1
 10
-93.57919354598379
 20
-53.29840801038518
 11
-82.77009265751985
 21
-52.50296325094314
 72
     1
 10
-82.77009265751985
 20
-52.50296325094314
 11
-66.39523370985989
 21
-52.20849143295345
 72
     1
 10
-66.39523370985989
 20
-52.20849143295345
 11
-60.56237378984224
 21
-51.60986115736887
 72
     1
 10
-60.56237378984224
 20
-51.60986115736887
 11
-53.18690334661368
 21
-49.13363799535
 72
     1
 10
-53.18690334661368
 20
-49.13363799535
 11
-48.25114034520812
 21
-46.15712469352001
 72
     1
 10
-48.25114034520812
 20
-46.15712469352001
 11
-41.36327284613616
 21
-41.4784306327856
 72
     1
 10
-41.36327284613616
 20
-41.4784306327856
 11
-36.1862216583977
 21
-37.17646148006315
 72
     1
 10
-36.1862216583977
 20
-37.17646148006315
 11
-30.3090435764534
 21
-31.51342810775896
 72
     1
 10
-30.3090435764534
 20
-31.51342810775896
 11
-25.44874076383349
 21
-26.41423410468997
 97
       28
330
68A40
330
68A41
330
68A42
330
68A43
330
68A44
330
68A45
330
68A46
330
68A47
330
68A48
330
68A49
330
68A4A
330
68A4B
330
68A4C
330
68A4D
330
68A4E
330
68A4F
330
68A34
330
68A35
330
68A36
330
68A37
330
68A38
330
68A39
330
68A3A
330
68A3B
330
68A3C
330
68A3D
330
68A3E
330
68A3F
 75
     0
 76
     1
 98
        1
 10
-5862.347743319265
 20
-214.9784525775103
450
        0
451
        0
460
0.0
461
0.0
452
        0
462
0.0
453
        0
470

1001
AcDbBlockRepETag
1070
     1
1071
        0
1005
68A33
  0
LINE
  5
68A34
102
{ACAD_REACTORS
330
68A33
102
}
330
68A2F
100
AcDbEntity
  8
04文字
 62
     7
100
AcDbLine
 10
-141.1878417552343
 20
-78.68498255765008
 30
0.0
 11
-106.2830199972886
 21
-57.23614098178223
 31
0.0
1001
AcDbBlockRepETag
1070
     1
1071
        1
1005
68A34
  0
LINE
  5
68A35
102
{ACAD_REACTORS
330
68A33
102
}
330
68A2F
100
AcDbEntity
  8
04文字
 62
     7
100
AcDbLine
 10
-106.2830199972886
 20
-57.23614098178223
 30
0.0
 11
-98.52220593835227
 21
-54.6146119225159
 31
0.0
1001
AcDbBlockRepETag
1070
     1
1071
        2
1005
68A35
  0
LINE
  5
68A36
102
{ACAD_REACTORS
330
68A33
102
}
330
68A2F
100
AcDbEntity
  8
04文字
 62
     7
100
AcDbLine
 10
-98.52220593835227
 20
-54.6146119225159
 30
0.0
 11
-93.57919354598379
 21
-53.29840801038518
 31
0.0
1001
AcDbBlockRepETag
1070
     1
1071
        3
1005
68A36
  0
LINE
  5
68A37
102
{ACAD_REACTORS
330
68A33
102
}
330
68A2F
100
AcDbEntity
  8
04文字
 62
     7
100
AcDbLine
 10
-93.57919354598379
 20
-53.29840801038518
 30
0.0
 11
-82.77009265751985
 21
-52.50296325094314
 31
0.0
1001
AcDbBlockRepETag
1070
     1
1071
        4
1005
68A37
  0
LINE
  5
68A38
102
{ACAD_REACTORS
330
68A33
102
}
330
68A2F
100
AcDbEntity
  8
04文字
 62
     7
100
AcDbLine
 10
-82.77009265751985
 20
-52.50296325094314
 30
0.0
 11
-66.39523370985989
 21
-52.20849143295345
 31
0.0
1001
AcDbBlockRepETag
1070
     1
1071
        5
1005
68A38
  0
LINE
  5
68A39
102
{ACAD_REACTORS
330
68A33
102
}
330
68A2F
100
AcDbEntity
  8
04文字
 62
     7
100
AcDbLine
 10
-66.39523370985989
 20
-52.20849143295345
 30
0.0
 11
-60.56237378984224
 21
-51.60986115736887
 31
0.0
1001
AcDbBlockRepETag
1070
     1
1071
        6
1005
68A39
  0
LINE
  5
68A3A
102
{ACAD_REACTORS
330
68A33
102
}
330
68A2F
100
AcDbEntity
  8
04文字
 62
     7
100
AcDbLine
 10
-60.56237378984224
 20
-51.60986115736887
 30
0.0
 11
-53.18690334661368
 21
-49.13363799535
 31
0.0
1001
AcDbBlockRepETag
1070
     1
1071
        7
1005
68A3A
  0
LINE
  5
68A3B
102
{ACAD_REACTORS
330
68A33
102
}
330
68A2F
100
AcDbEntity
  8
04文字
 62
     7
100
AcDbLine
 10
-53.18690334661368
 20
-49.13363799535
 30
0.0
 11
-48.25114034520812
 21
-46.15712469352001
 31
0.0
1001
AcDbBlockRepETag
1070
     1
1071
        8
1005
68A3B
  0
LINE
  5
68A3C
102
{ACAD_REACTORS
330
68A33
102
}
330
68A2F
100
AcDbEntity
  8
04文字
 62
     7
100
AcDbLine
 10
-48.25114034520812
 20
-46.15712469352001
 30
0.0
 11
-41.36327284613616
 21
-41.4784306327856
 31
0.0
1001
AcDbBlockRepETag
1070
     1
1071
        9
1005
68A3C
  0
LINE
  5
68A3D
102
{ACAD_REACTORS
330
68A33
102
}
330
68A2F
100
AcDbEntity
  8
04文字
 62
     7
100
AcDbLine
 10
-41.36327284613616
 20
-41.4784306327856
 30
0.0
 11
-36.1862216583977
 21
-37.17646148006315
 31
0.0
1001
AcDbBlockRepETag
1070
     1
1071
       10
1005
68A3D
  0
LINE
  5
68A3E
102
{ACAD_REACTORS
330
68A33
102
}
330
68A2F
100
AcDbEntity
  8
04文字
 62
     7
100
AcDbLine
 10
-36.1862216583977
 20
-37.17646148006315
 30
0.0
 11
-30.3090435764534
 21
-31.51342810775896
 31
0.0
1001
AcDbBlockRepETag
1070
     1
1071
       11
1005
68A3E
  0
LINE
  5
68A3F
102
{ACAD_REACTORS
330
68A33
102
}
330
68A2F
100
AcDbEntity
  8
04文字
 62
     7
100
AcDbLine
 10
-30.3090435764534
 20
-31.51342810775896
 30
0.0
 11
-25.44874076383349
 21
-26.41423410468997
 31
0.0
1001
AcDbBlockRepETag
1070
     1
1071
       12
1005
68A3F
  0
LINE
  5
68A40
102
{ACAD_REACTORS
330
68A33
102
}
330
68A2F
100
AcDbEntity
  8
04文字
 62
     7
100
AcDbLine
 10
-25.44874076383349
 20
-26.41423410468997
 30
0.0
 11
-36.49704079754156
 21
-31.88243830811916
 31
0.0
1001
AcDbBlockRepETag
1070
     1
1071
       13
1005
68A40
  0
LINE
  5
68A41
102
{ACAD_REACTORS
330
68A33
102
}
330
68A2F
100
AcDbEntity
  8
04文字
 62
     7
100
AcDbLine
 10
-36.49704079754156
 20
-31.88243830811916
 30
0.0
 11
-43.27833858861413
 21
-34.70035826995445
 31
0.0
1001
AcDbBlockRepETag
1070
     1
1071
       14
1005
68A41
  0
LINE
  5
68A42
102
{ACAD_REACTORS
330
68A33
102
}
330
68A2F
100
AcDbEntity
  8
04文字
 62
     7
100
AcDbLine
 10
-43.27833858861413
 20
-34.70035826995445
 30
0.0
 11
-48.74023137748008
 21
-35.58040821885516
 31
0.0
1001
AcDbBlockRepETag
1070
     1
1071
       15
1005
68A42
  0
LINE
  5
68A43
102
{ACAD_REACTORS
330
68A33
102
}
330
68A2F
100
AcDbEntity
  8
04文字
 62
     7
100
AcDbLine
 10
-48.74023137748008
 20
-35.58040821885516
 30
0.0
 11
-60.83745539321535
 21
-36.60121602988147
 31
0.0
1001
AcDbBlockRepETag
1070
     1
1071
       16
1005
68A43
  0
LINE
  5
68A44
102
{ACAD_REACTORS
330
68A33
102
}
330
68A2F
100
AcDbEntity
  8
04文字
 62
     7
100
AcDbLine
 10
-60.83745539321535
 20
-36.60121602988147
 30
0.0
 11
-74.2779031603859
 21
-36.84383637752035
 31
0.0
1001
AcDbBlockRepETag
1070
     1
1071
       17
1005
68A44
  0
LINE
  5
68A45
102
{ACAD_REACTORS
330
68A33
102
}
330
68A2F
100
AcDbEntity
  8
04文字
 62
     7
100
AcDbLine
 10
-74.2779031603859
 20
-36.84383637752035
 30
0.0
 11
-82.54174485038493
 21
-38.14354897677549
 31
0.0
1001
AcDbBlockRepETag
1070
     1
1071
       18
1005
68A45
  0
LINE
  5
68A46
102
{ACAD_REACTORS
330
68A33
102
}
330
68A2F
100
AcDbEntity
  8
04文字
 62
     7
100
AcDbLine
 10
-82.54174485038493
 20
-38.14354897677549
 30
0.0
 11
-89.62448295883769
 21
-40.2975542551394
 31
0.0
1001
AcDbBlockRepETag
1070
     1
1071
       19
1005
68A46
  0
LINE
  5
68A47
102
{ACAD_REACTORS
330
68A33
102
}
330
68A2F
100
AcDbEntity
  8
04文字
 62
     7
100
AcDbLine
 10
-89.62448295883769
 20
-40.2975542551394
 30
0.0
 11
-96.88567980757216
 21
-43.0635233461362
 31
0.0
1001
AcDbBlockRepETag
1070
     1
1071
       20
1005
68A47
  0
LINE
  5
68A48
102
{ACAD_REACTORS
330
68A33
102
}
330
68A2F
100
AcDbEntity
  8
04文字
 62
     7
100
AcDbLine
 10
-96.88567980757216
 20
-43.0635233461362
 30
0.0
 11
-102.6939005531276
 21
-46.45479174589854
 31
0.0
1001
AcDbBlockRepETag
1070
     1
1071
       21
1005
68A48
  0
LINE
  5
68A49
102
{ACAD_REACTORS
330
68A33
102
}
330
68A2F
100
AcDbEntity
  8
04文字
 62
     7
100
AcDbLine
 10
-102.6939005531276
 20
-46.45479174589854
 30
0.0
 11
-111.0508611361692
 21
-53.04510838731949
 31
0.0
1001
AcDbBlockRepETag
1070
     1
1071
       22
1005
68A49
  0
LINE
  5
68A4A
102
{ACAD_REACTORS
330
68A33
102
}
330
68A2F
100
AcDbEntity
  8
04文字
 62
     7
100
AcDbLine
 10
-111.0508611361692
 20
-53.04510838731949
 30
0.0
 11
-120.3459848790735
 21
-60.52800935033883
 31
0.0
1001
AcDbBlockRepETag
1070
     1
1071
       23
1005
68A4A
  0
LINE
  5
68A4B
102
{ACAD_REACTORS
330
68A33
102
}
330
68A2F
100
AcDbEntity
  8
04文字
 62
     7
100
AcDbLine
 10
-120.3459848790735
 20
-60.52800935033883
 30
0.0
 11
-128.2780849973605
 21
-66.74770713160978
 31
0.0
1001
AcDbBlockRepETag
1070
     1
1071
       24
1005
68A4B
  0
LINE
  5
68A4C
102
{ACAD_REACTORS
330
68A33
102
}
330
68A2F
100
AcDbEntity
  8
04文字
 62
     7
100
AcDbLine
 10
-128.2780849973605
 20
-66.74770713160978
 30
0.0
 11
-134.4742723110212
 21
-71.73691631574548
 31
0.0
1001
AcDbBlockRepETag
1070
     1
1071
       25
1005
68A4C
  0
LINE
  5
68A4D
102
{ACAD_REACTORS
330
68A33
102
}
330
68A2F
100
AcDbEntity
  8
04文字
 62
     7
100
AcDbLine
 10
-134.4742723110212
 20
-71.73691631574548
 30
0.0
 11
-136.7935675891349
 21
-73.92142383934697
 31
0.0
1001
AcDbBlockRepETag
1070
     1
1071
       26
1005
68A4D
  0
LINE
  5
68A4E
102
{ACAD_REACTORS
330
68A33
102
}
330
68A2F
100
AcDbEntity
  8
04文字
 62
     7
100
AcDbLine
 10
-136.7935675891349
 20
-73.92142383934697
 30
0.0
 11
-138.8740103635937
 21
-76.25246423039062
 31
0.0
1001
AcDbBlockRepETag
1070
     1
1071
       27
1005
68A4E
  0
LINE
  5
68A4F
102
{ACAD_REACTORS
330
68A33
102
}
330
68A2F
100
AcDbEntity
  8
04文字
 62
     7
100
AcDbLine
 10
-138.8740103635937
 20
-76.25246423039062
 30
0.0
 11
-141.1878417552343
 21
-78.68498255765008
 31
0.0
1001
AcDbBlockRepETag
1070
     1
1071
       28
1005
68A4F
  0
LINE
  5
68A50
330
68A2F
100
AcDbEntity
  8
04文字
 62
     7
100
AcDbLine
 10
-98.14777148059512
 20
-37.93550572251116
 30
0.0
 11
-89.44887654660124
 21
-34.28606018510982
 31
0.0
1001
AcDbBlockRepETag
1070
     1
1071
       29
1005
68A50
  0
LINE
  5
68A51
330
68A2F
100
AcDbEntity
  8
04文字
 62
     7
100
AcDbLine
 10
-89.44887654660124
 20
-34.28606018510982
 30
0.0
 11
-86.15702611283451
 21
-32.92877052038239
 31
0.0
1001
AcDbBlockRepETag
1070
     1
1071
       30
1005
68A51
  0
LINE
  5
68A52
330
68A2F
100
AcDbEntity
  8
04文字
 62
     7
100
AcDbLine
 10
-86.15702611283451
 20
-32.92877052038239
 30
0.0
 11
-81.10084558425114
 21
-31.31199403881328
 31
0.0
1001
AcDbBlockRepETag
1070
     1
1071
       31
1005
68A52
  0
LINE
  5
68A53
330
68A2F
100
AcDbEntity
  8
04文字
 62
     7
100
AcDbLine
 10
-81.10084558425114
 20
-31.31199403881328
 30
0.0
 11
-78.49690818297677
 21
-30.8173922969072
 31
0.0
1001
AcDbBlockRepETag
1070
     1
1071
       32
1005
68A53
  0
LINE
  5
68A54
330
68A2F
100
AcDbEntity
  8
04文字
 62
     7
100
AcDbLine
 10
-78.49690818297677
 20
-30.8173922969072
 30
0.0
 11
-56.9724380592088
 21
-30.71086630075661
 31
0.0
1001
AcDbBlockRepETag
1070
     1
1071
       33
1005
68A54
  0
LINE
  5
68A55
330
68A2F
100
AcDbEntity
  8
04文字
 62
     7
100
AcDbLine
 10
-56.9724380592088
 20
-30.71086630075661
 30
0.0
 11
-50.02726007859019
 21
-29.76758942127708
 31
0.0
1001
AcDbBlockRepETag
1070
     1
1071
       34
1005
68A55
  0
LINE
  5
68A56
330
68A2F
100
AcDbEntity
  8
04文字
 62
     7
100
AcDbLine
 10
-50.02726007859019
 20
-29.76758942127708
 30
0.0
 11
-40.77019824029412
 21
-27.17894901487307
 31
0.0
1001
AcDbBlockRepETag
1070
     1
1071
       35
1005
68A56
  0
LINE
  5
68A57
330
68A2F
100
AcDbEntity
  8
04文字
 62
     7
100
AcDbLine
 10
-40.77019824029412
 20
-27.17894901487307
 30
0.0
 11
-34.29226328629738
 21
-24.63525486666185
 31
0.0
1001
AcDbBlockRepETag
1070
     1
1071
       36
1005
68A57
  0
LINE
  5
68A58
330
68A2F
100
AcDbEntity
  8
04文字
 62
     7
100
AcDbLine
 10
-34.29226328629738
 20
-24.63525486666185
 30
0.0
 11
-29.28875294514728
 21
-21.69564114251262
 31
0.0
1001
AcDbBlockRepETag
1070
     1
1071
       37
1005
68A58
  0
LINE
  5
68A59
330
68A2F
100
AcDbEntity
  8
04文字
 62
     7
100
AcDbLine
 10
-29.28875294514728
 20
-21.69564114251262
 30
0.0
 11
-23.15488704288873
 21
-17.86641891388353
 31
0.0
1001
AcDbBlockRepETag
1070
     1
1071
       38
1005
68A59
  0
LINE
  5
68A5A
330
68A2F
100
AcDbEntity
  8
04文字
 62
     7
100
AcDbLine
 10
-23.15488704288873
 20
-17.86641891388353
 30
0.0
 11
-17.42254235641667
 21
-14.07013746247685
 31
0.0
1001
AcDbBlockRepETag
1070
     1
1071
       39
1005
68A5A
  0
LINE
  5
68A5B
330
68A2F
100
AcDbEntity
  8
04文字
 62
     7
100
AcDbLine
 10
-17.42254235641667
 20
-14.07013746247685
 30
0.0
 11
-12.09038565029186
 21
-10.36660577086513
 31
0.0
1001
AcDbBlockRepETag
1070
     1
1071
       40
1005
68A5B
  0
LINE
  5
68A5C
330
68A2F
100
AcDbEntity
  8
04文字
 62
     7
100
AcDbLine
 10
-12.09038565029186
 20
-10.36660577086513
 30
0.0
 11
-7.74271770404448
 21
-7.311236950470629
 31
0.0
1001
AcDbBlockRepETag
1070
     1
1071
       41
1005
68A5C
  0
LINE
  5
68A5D
330
68A2F
100
AcDbEntity
  8
04文字
 62
     7
100
AcDbLine
 10
-7.74271770404448
 20
-7.311236950470629
 30
0.0
 11
-3.13799901821585
 21
-3.55393308395287
 31
0.0
1001
AcDbBlockRepETag
1070
     1
1071
       42
1005
68A5D
  0
LINE
  5
68A5E
330
68A2F
100
AcDbEntity
  8
04文字
 62
     7
100
AcDbLine
 10
-3.13799901821585
 20
-3.55393308395287
 30
0.0
 11
-1.050149833936302
 21
-1.491732982838584
 31
0.0
1001
AcDbBlockRepETag
1070
     1
1071
       43
1005
68A5E
  0
LINE
  5
68A5F
330
68A2F
100
AcDbEntity
  8
04文字
 62
     7
100
AcDbLine
 10
-1.050149833936302
 20
-1.491732982838584
 30
0.0
 11
0.0
 21
0.0
 31
0.0
1001
AcDbBlockRepETag
1070
     1
1071
       44
1005
68A5F
  0
LINE
  5
68A60
330
68A2F
100
AcDbEntity
  8
04文字
 62
     7
100
AcDbLine
 10
0.0
 20
0.0
 30
0.0
 11
-4.836939804645226
 21
-2.617541860319761
 31
0.0
1001
AcDbBlockRepETag
1070
     1
1071
       45
1005
68A60
  0
LINE
  5
68A61
330
68A2F
100
AcDbEntity
  8
04文字
 62
     7
100
AcDbLine
 10
-4.836939804645226
 20
-2.617541860319761
 30
0.0
 11
-8.014868953818222
 21
-4.322560809901915
 31
0.0
1001
AcDbBlockRepETag
1070
     1
1071
       46
1005
68A61
  0
LINE
  5
68A62
330
68A2F
100
AcDbEntity
  8
04文字
 62
     7
100
AcDbLine
 10
-8.014868953818222
 20
-4.322560809901915
 30
0.0
 11
-12.04981417658382
 21
-6.811073427688825
 31
0.0
1001
AcDbBlockRepETag
1070
     1
1071
       47
1005
68A62
  0
LINE
  5
68A63
330
68A2F
100
AcDbEntity
  8
04文字
 62
     7
100
AcDbLine
 10
-12.04981417658382
 20
-6.811073427688825
 30
0.0
 11
-16.07230891581093
 21
-8.378320181054732
 31
0.0
1001
AcDbBlockRepETag
1070
     1
1071
       48
1005
68A63
  0
LINE
  5
68A64
330
68A2F
100
AcDbEntity
  8
04文字
 62
     7
100
AcDbLine
 10
-16.07230891581093
 20
-8.378320181054732
 30
0.0
 11
-19.25836212640206
 21
-9.424317926284857
 31
0.0
1001
AcDbBlockRepETag
1070
     1
1071
       49
1005
68A64
  0
LINE
  5
68A65
330
68A2F
100
AcDbEntity
  8
04文字
 62
     7
100
AcDbLine
 10
-19.25836212640206
 20
-9.424317926284857
 30
0.0
 11
-27.45723433011153
 21
-10.502574752285
 31
0.0
1001
AcDbBlockRepETag
1070
     1
1071
       50
1005
68A65
  0
LINE
  5
68A66
330
68A2F
100
AcDbEntity
  8
04文字
 62
     7
100
AcDbLine
 10
-27.45723433011153
 20
-10.502574752285
 30
0.0
 11
-52.4016241736681
 21
-10.48072407031941
 31
0.0
1001
AcDbBlockRepETag
1070
     1
1071
       51
1005
68A66
  0
LINE
  5
68A67
330
68A2F
100
AcDbEntity
  8
04文字
 62
     7
100
AcDbLine
 10
-52.4016241736681
 20
-10.48072407031941
 30
0.0
 11
-58.7509214923466
 21
-11.51949669016903
 31
0.0
1001
AcDbBlockRepETag
1070
     1
1071
       52
1005
68A67
  0
LINE
  5
68A68
330
68A2F
100
AcDbEntity
  8
04文字
 62
     7
100
AcDbLine
 10
-58.7509214923466
 20
-11.51949669016903
 30
0.0
 11
-64.13829881529818
 21
-13.62840282879188
 31
0.0
1001
AcDbBlockRepETag
1070
     1
1071
       53
1005
68A68
  0
LINE
  5
68A69
330
68A2F
100
AcDbEntity
  8
04文字
 62
     7
100
AcDbLine
 10
-64.13829881529818
 20
-13.62840282879188
 30
0.0
 11
-71.63789390790771
 21
-17.08276739446955
 31
0.0
1001
AcDbBlockRepETag
1070
     1
1071
       54
1005
68A69
  0
LINE
  5
68A6A
330
68A2F
100
AcDbEntity
  8
04文字
 62
     7
100
AcDbLine
 10
-71.63789390790771
 20
-17.08276739446955
 30
0.0
 11
-76.33549564030182
 21
-20.31085134557361
 31
0.0
1001
AcDbBlockRepETag
1070
     1
1071
       55
1005
68A6A
  0
LINE
  5
68A6B
330
68A2F
100
AcDbEntity
  8
04文字
 62
     7
100
AcDbLine
 10
-76.33549564030182
 20
-20.31085134557361
 30
0.0
 11
-80.2452868774344
 21
-22.8756423169616
 31
0.0
1001
AcDbBlockRepETag
1070
     1
1071
       56
1005
68A6B
  0
LINE
  5
68A6C
330
68A2F
100
AcDbEntity
  8
04文字
 62
     7
100
AcDbLine
 10
-80.2452868774344
 20
-22.8756423169616
 30
0.0
 11
-84.8575543130355
 21
-25.84869868994792
 31
0.0
1001
AcDbBlockRepETag
1070
     1
1071
       57
1005
68A6C
  0
LINE
  5
68A6D
330
68A2F
100
AcDbEntity
  8
04文字
 62
     7
100
AcDbLine
 10
-95.72660919662302
 20
-34.88618006542675
 30
0.0
 11
-97.63468922310677
 21
-37.16132857931007
 31
0.0
1001
AcDbBlockRepETag
1070
     1
1071
       58
1005
68A6D
  0
LINE
  5
68A6E
330
68A2F
100
AcDbEntity
  8
04文字
 62
     7
100
AcDbLine
 10
-95.72660919662302
 20
-34.88618006542675
 30
0.0
 11
-84.8575543130355
 21
-25.84869868994792
 31
0.0
1001
AcDbBlockRepETag
1070
     1
1071
       60
1005
68A6E
  0
HATCH
  5
68A6F
330
68A2F
100
AcDbEntity
  8
04文字
 62
     7
100
AcDbHatch
 10
0.0
 20
0.0
 30
0.0
210
0.0
220
0.0
230
1.0
  2
SOLID
 70
     1
 71
     0
 91
        1
 92
        1
 93
       32
 72
     1
 10
-19.2583621263966
 20
-9.424317926284857
 11
-27.45723433011153
 21
-10.50257475227408
 72
     1
 10
-27.45723433011699
 20
-10.502574752285
 11
-52.40162417367355
 21
-10.48072407031941
 72
     1
 10
-52.40162417367355
 20
-10.48072407031941
 11
-58.7509214923466
 21
-11.51949669016903
 72
     1
 10
-58.75092149235206
 20
-11.51949669016903
 11
-64.13829881529818
 21
-13.62840282879733
 72
     1
 10
-64.13829881529818
 20
-13.62840282879188
 11
-71.6378939078968
 21
-17.0827673944641
 72
     1
 10
-71.63789390790771
 20
-17.08276739446955
 11
-76.33549564030182
 21
-20.31085134557361
 72
     1
 10
-76.33549564029635
 20
-20.31085134557361
 11
-80.24528687743986
 21
-22.87564231695069
 72
     1
 10
-80.2452868774344
 20
-22.8756423169616
 11
-84.8575543130355
 21
-25.84869868995338
 72
     1
 10
-84.8575543130355
 20
-25.84869868994792
 11
-95.72660919663395
 21
-34.88618006541583
 72
     1
 10
-95.72660919662302
 20
-34.88618006542675
 11
-97.63468922310131
 21
-37.16132857931552
 72
     1
 10
-97.63468922311222
 20
-37.16132857931007
 11
-98.14777148060603
 21
-37.93550572251116
 72
     1
 10
-98.14777148060057
 20
-37.93550572251116
 11
-89.4488765466067
 21
-34.28606018510436
 72
     1
 10
-89.44887654660124
 20
-34.28606018510982
 11
-86.15702611282904
 21
-32.92877052038239
 72
     1
 10
-86.15702611283996
 20
-32.92877052038239
 11
-81.1008455842566
 21
-31.31199403881328
 72
     1
 10
-81.1008455842566
 20
-31.31199403881328
 11
-78.49690818296585
 21
-30.81739229691266
 72
     1
 10
-78.49690818296585
 20
-30.8173922969072
 11
-56.9724380592088
 21
-30.71086630075661
 72
     1
 10
-56.97243805921425
 20
-30.71086630075661
 11
-50.02726007859564
 21
-29.76758942127708
 72
     1
 10
-50.02726007859019
 20
-29.76758942127708
 11
-40.77019824029412
 21
-27.17894901486761
 72
     1
 10
-40.77019824028321
 20
-27.17894901487307
 11
-34.29226328627556
 21
-24.63525486666185
 72
     1
 10
-34.29226328629738
 20
-24.63525486666185
 11
-29.28875294514728
 21
-21.69564114251807
 72
     1
 10
-29.28875294514728
 20
-21.69564114251262
 11
-23.15488704288873
 21
-17.86641891387808
 72
     1
 10
-23.15488704288873
 20
-17.86641891388353
 11
-17.42254235640575
 21
-14.07013746248776
 72
     1
 10
-17.42254235641121
 20
-14.07013746247685
 11
-12.09038565029732
 21
-10.36660577085968
 72
     1
 10
-12.09038565029186
 20
-10.36660577086513
 11
-7.74271770404448
 21
-7.311236950470629
 72
     1
 10
-7.74271770404448
 20
-7.311236950470629
 11
-3.137999018221307
 21
-3.553933083963784
 72
     1
 10
-3.137999018221307
 20
-3.55393308395287
 11
-1.050149833936302
 21
-1.491732982833127
 72
     1
 10
-1.050149833936302
 20
-1.491732982838584
 11
0.0
 21
0.0
 72
     1
 10
0.0000000000109139
 20
0.0
 11
-4.836939804634312
 21
-2.617541860325218
 72
     1
 10
-4.836939804639769
 20
-2.617541860319761
 11
-8.014868953818222
 21
-4.322560809891001
 72
     1
 10
-8.014868953807308
 20
-4.322560809901915
 11
-12.04981417657836
 21
-6.811073427694282
 72
     1
 10
-12.04981417658928
 20
-6.811073427688825
 11
-16.07230891581639
 21
-8.378320181054732
 72
     1
 10
-16.07230891581639
 20
-8.378320181054732
 11
-19.25836212640206
 21
-9.424317926290314
 97
        0
 75
     0
 76
     1
 98
        1
 10
-5862.347743319265
 20
-211.7862003423761
450
        0
451
        0
460
0.0
461
0.0
452
        0
462
0.0
453
        0
470

1001
AcDbBlockRepETag
1070
     1
1071
       61
1005
68A6F
  0
ENDBLK
  5
68A70
330
68A2F
100
AcDbEntity
  8
0
100
AcDbBlockEnd
  0
ENDSEC
  0
SECTION
  2
ENTITIES
  0
TEXT
  5
FC8
330
406
100
AcDbEntity
  8
00文字
 62
     7
370
    -3
100
AcDbText
 10
12346.04135313295
 20
3161.628575121301
 30
0.0
 40
44.928
  1
FEPサイズ
  7
_Gothic_
100
AcDbText
  0
TEXT
  5
107B
330
406
100
AcDbEntity
  8
00文字
 62
     4
370
    -3
100
AcDbText
 10
12244.43521987951
 20
4249.685011599892
 30
0.0
 40
44.928
  1
②
  7
_Gothic_
100
AcDbText
  0
LWPOLYLINE
  5
6296D
330
406
100
AcDbEntity
  8
00枠
  6
Continuous
100
AcDbPolyline
 90
        4
 70
     1
 43
0.0
 10
12232.47367323643
 20
4503.331742975497
 10
12310.38058225199
 20
4503.331742975497
 10
12310.38058225199
 20
4347.895109192841
 10
12232.47367323643
 20
4347.895109192841
  0
LWPOLYLINE
  5
6296E
330
406
100
AcDbEntity
  8
00枠
  6
Continuous
100
AcDbPolyline
 90
        4
 70
     1
 43
0.0
 10
12310.38058225199
 20
4503.331742975497
 10
13013.37922594554
 20
4503.331742975497
 10
13013.37922594554
 20
4347.895109192841
 10
12310.38058225199
 20
4347.895109192841
  0
LWPOLYLINE
  5
6296F
330
406
100
AcDbEntity
  8
00枠
  6
Continuous
100
AcDbPolyline
 90
        4
 70
     1
 43
0.0
 10
13013.37922594554
 20
4503.331742975497
 10
13716.37786963908
 20
4503.331742975497
 10
13716.37786963908
 20
4347.895109192841
 10
13013.37922594554
 20
4347.895109192841
  0
TEXT
  5
62970
330
406
100
AcDbEntity
  8
00文字
 62
     7
370
    -3
100
AcDbText
 10
12346.04135313295
 20
4405.121645382548
 30
0.0
 40
44.928
  1
基礎サイズ
  7
_Gothic_
100
AcDbText
  0
TEXT
  5
62971
330
406
100
AcDbEntity
  8
00文字
 62
     4
370
    -3
100
AcDbText
 10
13025.67983404362
 20
4364.310865890222
 30
0.0
 40
31.2
  1
(基礎幅)
  7
_Gothic_
100
AcDbText
  0
TEXT
  5
62972
330
406
100
AcDbEntity
  8
00文字
 62
     4
370
    -3
100
AcDbText
 10
13233.99775650905
 20
4364.310865890222
 30
0.0
 40
31.2
  1
(基礎幅)
  7
_Gothic_
100
AcDbText
  0
TEXT
  5
62973
330
406
100
AcDbEntity
  8
00文字
 62
     4
370
    -3
100
AcDbText
 10
13442.30409293995
 20
4364.310865890222
 30
0.0
 40
31.2
  1
(基礎長さ)
  7
_Gothic_
100
AcDbText
  0
TEXT
  5
62974
330
406
100
AcDbEntity
  8
00文字
 62
     7
370
    -3
100
AcDbText
 10
13176.58730338197
 20
4401.815087286247
 30
0.0
 40
44.928
  1
×
  7
_Gothic_
100
AcDbText
  0
TEXT
  5
62979
330
406
100
AcDbEntity
  8
00文字
 62
     7
370
    -3
100
AcDbText
 10
13389.52759713853
 20
4401.815087286247
 30
0.0
 40
44.928
  1
×
  7
_Gothic_
100
AcDbText
  0
TEXT
  5
6297A
330
406
100
AcDbEntity
  8
00文字
 62
     7
370
    -3
100
AcDbText
 10
13638.39514057018
 20
4401.815087286247
 30
0.0
 40
44.928
  1
H
  7
_Gothic_
100
AcDbText
  0
LWPOLYLINE
  5
6297D
330
406
100
AcDbEntity
  8
00枠
  6
Continuous
100
AcDbPolyline
 90
        4
 70
     1
 43
0.0
 10
12232.47367323643
 20
4347.895109192841
 10
12310.38058225199
 20
4347.895109192841
 10
12310.38058225199
 20
4192.458475410185
 10
12232.47367323643
 20
4192.458475410185
  0
LWPOLYLINE
  5
6297E
330
406
100
AcDbEntity
  8
00枠
  6
Continuous
100
AcDbPolyline
 90
        4
 70
     1
 43
0.0
 10
12310.38058225199
 20
4347.895109192841
 10
13013.37922594554
 20
4347.895109192841
 10
13013.37922594554
 20
4192.458475410185
 10
12310.38058225199
 20
4192.458475410185
  0
LWPOLYLINE
  5
6297F
330
406
100
AcDbEntity
  8
00枠
  6
Continuous
100
AcDbPolyline
 90
        4
 70
     1
 43
0.0
 10
13013.37922594554
 20
4347.895109192841
 10
13716.37786963908
 20
4347.895109192841
 10
13716.37786963908
 20
4192.458475410185
 10
13013.37922594554
 20
4192.458475410185
  0
TEXT
  5
62980
330
406
100
AcDbEntity
  8
00文字
 62
     7
370
    -3
100
AcDbText
 10
12346.04135313295
 20
4249.685011599892
 30
0.0
 40
44.928
  1
アンカーサイズ
  7
_Gothic_
100
AcDbText
  0
TEXT
  5
62981
330
406
100
AcDbEntity
  8
00文字
 62
     4
370
    -3
100
AcDbText
 10
13191.93090845472
 20
4202.909130708767
 30
0.0
 40
31.2
  1
ネジ径
  7
_Gothic_
100
AcDbText
  0
TEXT
  5
62982
330
406
100
AcDbEntity
  8
00文字
 62
     4
370
    -3
100
AcDbText
 10
13389.58696197961
 20
4202.909130708767
 30
0.0
 40
31.2
  1
ピッチ
  7
_Gothic_
100
AcDbText
  0
TEXT
  5
62983
330
406
100
AcDbEntity
  8
00文字
 62
     4
370
    -3
100
AcDbText
 10
13579.90444731955
 20
4202.909130708767
 30
0.0
 40
31.2
  1
総長さ
  7
_Gothic_
100
AcDbText
  0
TEXT
  5
62987
330
406
100
AcDbEntity
  8
00文字
 62
     7
370
    -3
100
AcDbText
 10
13125.0677075589
 20
4255.831835161514
 30
0.0
 40
44.928
  1
-M
  7
_Gothic_
100
AcDbText
  0
TEXT
  5
62988
330
406
100
AcDbEntity
  8
00文字
 62
     7
370
    -3
100
AcDbText
 10
13515.95777520162
 20
4255.831835161514
 30
0.0
 40
44.928
  1
-L
  7
_Gothic_
100
AcDbText
  0
TEXT
  5
6298D
330
406
100
AcDbEntity
  8
00文字
 62
     7
370
    -3
100
AcDbText
 10
13331.73045739192
 20
4255.831835161514
 30
0.0
 40
44.928
  1
-P
  7
_Gothic_
100
AcDbText
  0
LWPOLYLINE
  5
62995
330
406
100
AcDbEntity
  8
00枠
  6
Continuous
100
AcDbPolyline
 90
        4
 70
     1
 43
0.0
 10
12232.47367323643
 20
4037.021841627529
 10
12310.38058225199
 20
4037.021841627529
 10
12310.38058225199
 20
3881.585207844874
 10
12232.47367323643
 20
3881.585207844874
  0
LWPOLYLINE
  5
62996
330
406
100
AcDbEntity
  8
00枠
  6
Continuous
100
AcDbPolyline
 90
        4
 70
     1
 43
0.0
 10
12310.38058225199
 20
4037.021841627529
 10
13013.37922594554
 20
4037.021841627529
 10
13013.37922594554
 20
3881.585207844874
 10
12310.38058225199
 20
3881.585207844874
  0
LWPOLYLINE
  5
62997
330
406
100
AcDbEntity
  8
00枠
  6
Continuous
100
AcDbPolyline
 90
        4
 70
     1
 43
0.0
 10
13013.37922594554
 20
4037.021841627529
 10
13716.37786963908
 20
4037.021841627529
 10
13716.37786963908
 20
3881.585207844874
 10
13013.37922594554
 20
3881.585207844874
  0
TEXT
  5
6299A
330
406
100
AcDbEntity
  8
00文字
 62
     7
370
    -3
100
AcDbText
 10
13427.66823589382
 20
3938.81174403458
 30
0.0
 40
44.928
  1
mm
  7
_Gothic_
100
AcDbText
  0
LWPOLYLINE
  5
6299D
330
406
100
AcDbEntity
  8
00枠
  6
Continuous
100
AcDbPolyline
 90
        4
 70
     1
 43
0.0
 10
12232.47367323643
 20
3881.585207844874
 10
12310.38058225199
 20
3881.585207844874
 10
12310.38058225199
 20
3726.148574062218
 10
12232.47367323643
 20
3726.148574062218
  0
LWPOLYLINE
  5
6299E
330
406
100
AcDbEntity
  8
00枠
  6
Continuous
100
AcDbPolyline
 90
        4
 70
     1
 43
0.0
 10
12310.38058225199
 20
3881.585207844874
 10
13013.37922594554
 20
3881.585207844874
 10
13013.37922594554
 20
3726.148574062218
 10
12310.38058225199
 20
3726.148574062218
  0
LWPOLYLINE
  5
6299F
330
406
100
AcDbEntity
  8
00枠
  6
Continuous
100
AcDbPolyline
 90
        4
 70
     1
 43
0.0
 10
13013.37922594554
 20
3881.585207844874
 10
13716.37786963908
 20
3881.585207844874
 10
13716.37786963908
 20
3726.148574062218
 10
13013.37922594554
 20
3726.148574062218
  0
TEXT
  5
629A3
330
406
100
AcDbEntity
  8
00文字
 62
     4
370
    -3
100
AcDbText
 10
13074.86184398486
 20
3895.080039178534
 30
0.0
 40
31.2
  1
（アンカーのネジ切長さによる）
  7
_Gothic_
100
AcDbText
  0
TEXT
  5
629A4
330
406
100
AcDbEntity
  8
00文字
 62
     7
370
    -3
100
AcDbText
 10
13427.66823589382
 20
3015.788266295297
 30
0.0
 40
44.928
  1
mm
  7
_Gothic_
100
AcDbText
  0
LWPOLYLINE
  5
629A7
330
406
100
AcDbEntity
  8
00枠
  6
Continuous
100
AcDbPolyline
 90
        4
 70
     1
 43
0.0
 10
12232.47367323643
 20
3415.275306496905
 10
12310.38058225199
 20
3415.275306496905
 10
12310.38058225199
 20
3259.83867271425
 10
12232.47367323643
 20
3259.83867271425
  0
LWPOLYLINE
  5
629A8
330
406
100
AcDbEntity
  8
00枠
  6
Continuous
100
AcDbPolyline
 90
        4
 70
     1
 43
0.0
 10
12310.38058225199
 20
3415.275306496905
 10
13013.37922594554
 20
3415.275306496905
 10
13013.37922594554
 20
3259.83867271425
 10
12310.38058225199
 20
3259.83867271425
  0
LWPOLYLINE
  5
629A9
330
406
100
AcDbEntity
  8
00枠
  6
Continuous
100
AcDbPolyline
 90
        4
 70
     1
 43
0.0
 10
13013.37922594554
 20
3415.275306496905
 10
13716.37786963908
 20
3415.275306496905
 10
13716.37786963908
 20
3259.83867271425
 10
13013.37922594554
 20
3259.83867271425
  0
TEXT
  5
629AB
330
406
100
AcDbEntity
  8
00文字
 62
     7
370
    -3
100
AcDbText
 10
12346.04135313295
 20
3282.806130035549
 30
0.0
 40
44.928
  1
FEP管メーカー
  7
_Gothic_
100
AcDbText
  0
TEXT
  5
629AC
330
406
100
AcDbEntity
  8
00文字
 62
     7
370
    -3
100
AcDbText
 10
12346.04135313295
 20
3352.785130035549
 30
0.0
 40
44.928
  1
埋め込み用
  7
_Gothic_
100
AcDbText
  0
TEXT
  5
629AD
330
406
100
AcDbEntity
  8
00文字
 62
     7
370
    -3
100
AcDbText
 10
13028.04495938531
 20
3352.110886686951
 30
0.0
 40
44.928
  1
古河・未来・東拓
  7
_Gothic_
100
AcDbText
  0
TEXT
  5
629AF
330
406
100
AcDbEntity
  8
00文字
 62
     7
370
    -3
100
AcDbText
 10
13225.30996960534
 20
3280.751557913621
 30
0.0
 40
44.928
  1
その他(　　　　)
  7
_Gothic_
100
AcDbText
  0
LWPOLYLINE
  5
629B3
330
406
100
AcDbEntity
  8
00枠
  6
Continuous
100
AcDbPolyline
 90
        4
 70
     1
 43
0.0
 10
12232.47367323643
 20
3259.83867271425
 10
12310.38058225199
 20
3259.83867271425
 10
12310.38058225199
 20
3104.402038931594
 10
12232.47367323643
 20
3104.402038931594
  0
LWPOLYLINE
  5
629B4
330
406
100
AcDbEntity
  8
00枠
  6
Continuous
100
AcDbPolyline
 90
        4
 70
     1
 43
0.0
 10
12310.38058225199
 20
3259.83867271425
 10
13013.37922594554
 20
3259.83867271425
 10
13013.37922594554
 20
3104.402038931594
 10
12310.38058225199
 20
3104.402038931594
  0
LWPOLYLINE
  5
629B5
330
406
100
AcDbEntity
  8
00枠
  6
Continuous
100
AcDbPolyline
 90
        4
 70
     1
 43
0.0
 10
13013.37922594554
 20
3259.83867271425
 10
13716.37786963908
 20
3259.83867271425
 10
13716.37786963908
 20
3104.402038931594
 10
13013.37922594554
 20
3104.402038931594
  0
TEXT
  5
629B9
330
406
100
AcDbEntity
  8
00文字
 62
     4
370
    -3
100
AcDbText
 10
13124.85057266416
 20
3130.923150732268
 30
0.0
 40
31.2
  1
80φ・100φ・その他(　　　φ)
  7
_Gothic_
100
AcDbText
  0
TEXT
  5
629BA
330
406
100
AcDbEntity
  8
00文字
 62
     4
370
    -3
100
AcDbText
 10
13050.14718641006
 20
3204.356283651909
 30
0.0
 40
31.2
  1
30φ・40φ・50φ・65φ
  7
_Gothic_
100
AcDbText
  0
LWPOLYLINE
  5
629C8
330
406
100
AcDbEntity
  8
00枠
  6
Continuous
100
AcDbPolyline
 90
        4
 70
     1
 43
0.0
 10
12232.47367323643
 20
3726.148574062218
 10
12310.38058225199
 20
3726.148574062218
 10
12310.38058225199
 20
3570.711940279562
 10
12232.47367323643
 20
3570.711940279562
  0
LWPOLYLINE
  5
629C9
330
406
100
AcDbEntity
  8
00枠
  6
Continuous
100
AcDbPolyline
 90
        4
 70
     1
 43
0.0
 10
12310.38058225199
 20
3726.148574062218
 10
13013.37922594554
 20
3726.148574062218
 10
13013.37922594554
 20
3570.711940279562
 10
12310.38058225199
 20
3570.711940279562
  0
LWPOLYLINE
  5
629CA
330
406
100
AcDbEntity
  8
00枠
  6
Continuous
100
AcDbPolyline
 90
        4
 70
     1
 43
0.0
 10
13013.37922594554
 20
3726.148574062218
 10
13716.37786963908
 20
3726.148574062218
 10
13716.37786963908
 20
3570.711940279562
 10
13013.37922594554
 20
3570.711940279562
  0
TEXT
  5
629CD
330
406
100
AcDbEntity
  8
00文字
 62
     7
370
    -3
100
AcDbText
 10
12346.04135313295
 20
3627.938476469269
 30
0.0
 40
44.928
  1
アンカー材質・形状
  7
_Gothic_
100
AcDbText
  0
TEXT
  5
629D1
330
406
100
AcDbEntity
  8
00文字
 62
     4
370
    -3
100
AcDbText
 10
13064.75072485822
 20
3679.84241163117
 30
0.0
 40
31.2
  1
溶融亜鉛メッキ　・　ステンレス
  7
_Gothic_
100
AcDbText
  0
TEXT
  5
629D2
330
406
100
AcDbEntity
  8
00文字
 62
     4
370
    -3
100
AcDbText
 10
13064.11247130138
 20
3582.19712661392
 30
0.0
 40
31.2
  1
内曲げ　・　外曲げ　・　直
  7
_Gothic_
100
AcDbText
  0
LWPOLYLINE
  5
629D3
330
406
100
AcDbEntity
  8
00枠
  6
Continuous
100
AcDbPolyline
 90
        4
 70
     1
 43
0.0
 10
12232.47367323643
 20
3570.711940279562
 10
12310.38058225199
 20
3570.711940279562
 10
12310.38058225199
 20
3415.275306496905
 10
12232.47367323643
 20
3415.275306496905
  0
LWPOLYLINE
  5
629D4
330
406
100
AcDbEntity
  8
00枠
  6
Continuous
100
AcDbPolyline
 90
        4
 70
     1
 43
0.0
 10
12310.38058225199
 20
3570.711940279562
 10
13013.37922594554
 20
3570.711940279562
 10
13013.37922594554
 20
3415.275306496905
 10
12310.38058225199
 20
3415.275306496905
  0
LWPOLYLINE
  5
629D5
330
406
100
AcDbEntity
  8
00枠
  6
Continuous
100
AcDbPolyline
 90
        4
 70
     1
 43
0.0
 10
13013.37922594554
 20
3570.711940279562
 10
13716.37786963908
 20
3570.711940279562
 10
13716.37786963908
 20
3415.275306496905
 10
13013.37922594554
 20
3415.275306496905
  0
TEXT
  5
629D8
330
406
100
AcDbEntity
  8
00文字
 62
     7
370
    -3
100
AcDbText
 10
12346.04135313295
 20
3472.501842686613
 30
0.0
 40
44.928
  1
設置するポールの内径
  7
_Gothic_
100
AcDbText
  0
TEXT
  5
629DA
330
406
100
AcDbEntity
  8
00文字
 62
     7
370
    -3
100
AcDbText
 10
13205.38168589413
 20
3472.501842686613
 30
0.0
 40
44.928
  1
φ
  7
_Gothic_
100
AcDbText
  0
LWPOLYLINE
  5
629DB
330
406
100
AcDbEntity
  8
00枠
  6
Continuous
100
AcDbPolyline
 90
        4
 70
     1
 43
0.0
 10
12232.47367323643
 20
3104.402038931594
 10
12310.38058225199
 20
3104.402038931594
 10
12310.38058225199
 20
2638.092137583627
 10
12232.47367323643
 20
2638.092137583627
  0
LWPOLYLINE
  5
629DC
330
406
100
AcDbEntity
  8
00枠
  6
Continuous
100
AcDbPolyline
 90
        4
 70
     1
 43
0.0
 10
12310.38058225199
 20
3104.402038931594
 10
13013.37922594554
 20
3104.402038931594
 10
13013.37922594554
 20
2948.965405148938
 10
12310.38058225199
 20
2948.965405148938
  0
LWPOLYLINE
  5
629DD
330
406
100
AcDbEntity
  8
00枠
  6
Continuous
100
AcDbPolyline
 90
        4
 70
     1
 43
0.0
 10
13013.37922594554
 20
3104.402038931594
 10
13716.37786963908
 20
3104.402038931594
 10
13716.37786963908
 20
2948.965405148938
 10
13013.37922594554
 20
2948.965405148938
  0
TEXT
  5
629DE
330
406
100
AcDbEntity
  8
00文字
 62
     7
370
    -3
100
AcDbText
 10
12346.04135313295
 20
3006.191941338645
 30
0.0
 40
44.928
  1
FEP管側面出し位置
  7
_Gothic_
100
AcDbText
  0
TEXT
  5
629DF
330
406
100
AcDbEntity
  8
00文字
 62
     4
370
    -3
100
AcDbText
 10
13124.42986701266
 20
2963.839750603018
 30
0.0
 40
31.2
  1
(１本出しは寸法自由設定)
  7
_Gothic_
100
AcDbText
  0
TEXT
  5
629E4
330
406
100
AcDbEntity
  8
00文字
 62
     4
370
    -3
100
AcDbText
 10
12407.29865230942
 20
2963.839750603018
 30
0.0
 40
31.2
  1
(2本出しの場合は下記の寸法)
  7
_Gothic_
100
AcDbText
  0
LWPOLYLINE
  5
629E5
330
406
100
AcDbEntity
  8
00枠
  6
Continuous
100
AcDbPolyline
 90
        4
 70
     1
 43
0.0
 10
12310.38058225199
 20
2948.965405148938
 10
13013.37922594554
 20
2948.965405148938
 10
13013.37922594554
 20
2793.528771366282
 10
12310.38058225199
 20
2793.528771366282
  0
LWPOLYLINE
  5
629E6
330
406
100
AcDbEntity
  8
00枠
  6
Continuous
100
AcDbPolyline
 90
        4
 70
     1
 43
0.0
 10
13013.37922594554
 20
2948.965405148938
 10
13716.37786963908
 20
2948.965405148938
 10
13716.37786963908
 20
2793.528771366282
 10
13013.37922594554
 20
2793.528771366282
  0
LWPOLYLINE
  5
629E7
330
406
100
AcDbEntity
  8
00枠
  6
Continuous
100
AcDbPolyline
 90
        4
 70
     1
 43
0.0
 10
12310.38058225199
 20
2793.528771366282
 10
13013.37922594554
 20
2793.528771366282
 10
13013.37922594554
 20
2638.092137583627
 10
12310.38058225199
 20
2638.092137583627
  0
LWPOLYLINE
  5
629E8
330
406
100
AcDbEntity
  8
00枠
  6
Continuous
100
AcDbPolyline
 90
        4
 70
     1
 43
0.0
 10
13013.37922594554
 20
2793.528771366282
 10
13716.37786963908
 20
2793.528771366282
 10
13716.37786963908
 20
2638.092137583627
 10
13013.37922594554
 20
2638.092137583627
  0
LINE
  5
629E9
330
406
100
AcDbEntity
  8
00枠
  6
Continuous
100
AcDbLine
 10
12564.77640314539
 20
2948.965405148938
 30
0.0
 11
12564.77640314539
 21
2638.092137583627
 31
0.0
  0
LINE
  5
629EA
330
406
100
AcDbEntity
  8
00枠
  6
Continuous
100
AcDbLine
 10
13267.77504683894
 20
2948.965405148938
 30
0.0
 11
13267.77504683894
 21
2638.092137583627
 31
0.0
  0
TEXT
  5
629EC
330
406
100
AcDbEntity
  8
00文字
 62
     7
370
    -3
100
AcDbText
 10
12346.04135313295
 20
2850.755307555989
 30
0.0
 40
44.928
  1
400□
  7
_Gothic_
100
AcDbText
  0
TEXT
  5
629ED
330
406
100
AcDbEntity
  8
00文字
 62
     7
370
    -3
100
AcDbText
 10
13049.03999682649
 20
2850.755307555989
 30
0.0
 40
44.928
  1
500□
  7
_Gothic_
100
AcDbText
  0
TEXT
  5
629EE
330
406
100
AcDbEntity
  8
00文字
 62
     7
370
    -3
100
AcDbText
 10
12346.04135313295
 20
2695.318673773333
 30
0.0
 40
44.928
  1
600□
  7
_Gothic_
100
AcDbText
  0
TEXT
  5
629EF
330
406
100
AcDbEntity
  8
00文字
 62
     7
370
    -3
100
AcDbText
 10
13049.03999682649
 20
2696.169766473919
 30
0.0
 40
44.928
  1
800□
  7
_Gothic_
100
AcDbText
  0
TEXT
  5
629F1
330
406
100
AcDbEntity
  8
00文字
 62
     4
370
    -3
100
AcDbText
 10
12625.44048865908
 20
2850.755307555989
 30
0.0
 40
40.0
  1
450　or　650
  7
_Gothic_
100
AcDbText
  0
TEXT
  5
629F2
330
406
100
AcDbEntity
  8
00文字
 62
     4
370
    -3
100
AcDbText
 10
13328.43913235263
 20
2850.755307555989
 30
0.0
 40
40.0
  1
450　or　650
  7
_Gothic_
100
AcDbText
  0
TEXT
  5
629F3
330
406
100
AcDbEntity
  8
00文字
 62
     4
370
    -3
100
AcDbText
 10
12612.40969953695
 20
2695.318673773333
 30
0.0
 40
40.0
  1
500・700・900
  7
_Gothic_
100
AcDbText
  0
TEXT
  5
629F4
330
406
100
AcDbEntity
  8
00文字
 62
     4
370
    -3
100
AcDbText
 10
13315.4083432305
 20
2695.318673773333
 30
0.0
 40
40.0
  1
500・700・900
  7
_Gothic_
100
AcDbText
  0
LWPOLYLINE
  5
629F6
330
406
100
AcDbEntity
  8
00枠
  6
Continuous
100
AcDbPolyline
 90
        4
 70
     1
 43
0.0
 10
12232.47367323643
 20
2638.092137583627
 10
12310.38058225199
 20
2638.092137583627
 10
12310.38058225199
 20
2482.65550380097
 10
12232.47367323643
 20
2482.65550380097
  0
LWPOLYLINE
  5
629F7
330
406
100
AcDbEntity
  8
00枠
  6
Continuous
100
AcDbPolyline
 90
        4
 70
     1
 43
0.0
 10
12310.38058225199
 20
2638.092137583627
 10
13013.37922594554
 20
2638.092137583627
 10
13013.37922594554
 20
2482.65550380097
 10
12310.38058225199
 20
2482.65550380097
  0
LWPOLYLINE
  5
629F8
330
406
100
AcDbEntity
  8
00枠
  6
Continuous
100
AcDbPolyline
 90
        4
 70
     1
 43
0.0
 10
13013.37922594554
 20
2638.092137583627
 10
13716.37786963908
 20
2638.092137583627
 10
13716.37786963908
 20
2482.65550380097
 10
13013.37922594554
 20
2482.65550380097
  0
TEXT
  5
629F9
330
406
100
AcDbEntity
  8
00文字
 62
     4
370
    -3
100
AcDbText
 10
12244.43521987951
 20
4405.121645382548
 30
0.0
 40
44.928
  1
①
  7
_Gothic_
100
AcDbText
  0
TEXT
  5
62A04
330
406
100
AcDbEntity
  8
00文字
 62
     4
370
    -3
100
AcDbText
 10
12244.43521987951
 20
4094.248377817236
 30
0.0
 40
44.928
  1
③
  7
_Gothic_
100
AcDbText
  0
TEXT
  5
62A05
330
406
100
AcDbEntity
  8
00文字
 62
     4
370
    -3
100
AcDbText
 10
12244.43521987951
 20
3938.81174403458
 30
0.0
 40
44.928
  1
④
  7
_Gothic_
100
AcDbText
  0
TEXT
  5
62A06
330
406
100
AcDbEntity
  8
00文字
 62
     4
370
    -3
100
AcDbText
 10
12244.43521987951
 20
3783.375110251924
 30
0.0
 40
44.928
  1
⑤
  7
_Gothic_
100
AcDbText
  0
TEXT
  5
62A07
330
406
100
AcDbEntity
  8
00文字
 62
     4
370
    -3
100
AcDbText
 10
12244.43521987951
 20
3627.938476469269
 30
0.0
 40
44.928
  1
⑥
  7
_Gothic_
100
AcDbText
  0
TEXT
  5
62A08
330
406
100
AcDbEntity
  8
00文字
 62
     4
370
    -3
100
AcDbText
 10
12244.43521987951
 20
3472.501842686613
 30
0.0
 40
44.928
  1
⑦
  7
_Gothic_
100
AcDbText
  0
TEXT
  5
62A09
330
406
100
AcDbEntity
  8
00文字
 62
     4
370
    -3
100
AcDbText
 10
12244.43521987951
 20
3317.065208903957
 30
0.0
 40
44.928
  1
⑧
  7
_Gothic_
100
AcDbText
  0
TEXT
  5
62A0A
330
406
100
AcDbEntity
  8
00文字
 62
     4
370
    -3
100
AcDbText
 10
12244.43521987951
 20
2850.755307555989
 30
0.0
 40
44.928
  1
⑩
  7
_Gothic_
100
AcDbText
  0
TEXT
  5
62A0D
330
406
100
AcDbEntity
  8
00文字
 62
     4
370
    -3
100
AcDbText
 10
12244.43521987951
 20
2539.882039990677
 30
0.0
 40
44.928
  1
⑪
  7
_Gothic_
100
AcDbText
  0
LWPOLYLINE
  5
62A17
330
406
100
AcDbEntity
  8
00枠
  6
Continuous
100
AcDbPolyline
 90
        4
 70
     1
 43
0.0
 10
12232.47367323643
 20
2327.218870018314
 10
13716.37786963908
 20
2327.218870018314
 10
13716.37786963908
 20
2146.029761891232
 10
12232.47367323643
 20
2146.029761891232
  0
TEXT
  5
62A18
330
406
100
AcDbEntity
  8
00文字
 62
     7
370
    -3
100
AcDbText
 10
12252.84096549046
 20
2276.076731657926
 30
0.0
 40
44.928
  1
※ 備　考
  7
_Gothic_
100
AcDbText
  0
LWPOLYLINE
  5
64B0F
330
406
100
AcDbEntity
  8
00枠
100
AcDbPolyline
 90
        4
 70
     1
 43
0.0
 10
10740.93936663179
 20
1972.5
 10
13890.93936663179
 20
1972.5
 10
13890.93936663179
 20
6427.500000000001
 10
10740.93936663179
 20
6427.500000000001
  0
LWPOLYLINE
  5
65583
330
406
100
AcDbEntity
  8
00寸法
  6
Continuous
100
AcDbPolyline
 90
        4
 70
     1
 43
15.0
 10
10890.93936663179
 20
2122.5
 10
10890.93936663179
 20
6277.499999999999
 10
13740.93936663179
 20
6277.499999999999
 10
13740.93936663179
 20
2122.5
  0
LINE
  5
684A7
330
406
100
AcDbEntity
  8
00補助線
  6
一点鎖線
100
AcDbLine
 10
11509.92310718592
 20
4641.638720045579
 30
0.0
 11
11509.92310718593
 21
2754.451808323583
 31
0.0
  0
LINE
  5
684A8
330
406
100
AcDbEntity
  8
00構造物
100
AcDbLine
 10
11809.92310151927
 20
2854.942107930117
 30
0.0
 11
11809.92310151925
 21
4243.942108179449
 31
0.0
  0
LINE
  5
684A9
330
406
100
AcDbEntity
  8
00構造物
100
AcDbLine
 10
11209.92311285259
 20
4243.942108179449
 30
0.0
 11
11209.92311285259
 21
2854.942107930117
 31
0.0
  0
LINE
  5
684AA
330
406
100
AcDbEntity
  8
00構造物
100
AcDbLine
 10
11220.92311260326
 20
4254.942107930117
 30
0.0
 11
11798.92310176859
 21
4254.942107930117
 31
0.0
  0
LINE
  5
684AB
330
406
100
AcDbEntity
  8
00補助線
100
AcDbLine
 10
11209.92311285259
 20
4243.942108179449
 30
0.0
 11
11809.92310151925
 21
4243.942108179449
 31
0.0
  0
LINE
  5
684AC
330
406
100
AcDbEntity
  8
00構造物
100
AcDbLine
 10
11209.92311285259
 20
4243.942108179449
 30
0.0
 11
11220.92311260326
 21
4254.942107930117
 31
0.0
  0
LINE
  5
684AD
330
406
100
AcDbEntity
  8
00構造物
100
AcDbLine
 10
11798.92310176859
 20
4254.942107930117
 30
0.0
 11
11809.92310151925
 21
4243.942108179449
 31
0.0
  0
DIMENSION
  5
684AE
330
406
100
AcDbEntity
  8
00寸法
  6
Continuous
100
AcDbDimension
  2
*D8
 10
11047.48080473034
 20
2854.942107930117
 30
0.0
 11
11007.20161691308
 21
3554.942107930119
 31
0.0
 70
    32
  1
①(基礎の長さ)
 71
     5
 42
1400.000000000001
 73
     0
 74
     0
 75
     0
  3
15
100
AcDbAlignedDimension
 13
11220.92311260326
 23
4254.942107930117
 33
0.0
 14
11211.67311288376
 24
2854.942107930117
 34
0.0
 50
90.0
100
AcDbRotatedDimension
1001
ACAD
1000
DSTYLE
1002
{
1070
    49
1040
5.0
1070
   290
1070
     1
1002
}
  0
DIMENSION
  5
684AF
330
406
100
AcDbEntity
  8
00寸法
  6
Continuous
100
AcDbDimension
  2
*D9
 10
11809.92310151926
 20
2544.66995651384
 30
0.0
 11
11509.92310718592
 21
2584.949144331099
 31
0.0
 70
    32
  1
①(基礎幅)
 71
     5
 42
599.9999886666664
 73
     0
 74
     0
 75
     0
  3
15
100
AcDbAlignedDimension
 13
11209.92311285259
 23
2854.942107930117
 33
0.0
 14
11809.92310151926
 24
2854.942107930117
 34
0.0
100
AcDbRotatedDimension
1001
ACAD
1000
DSTYLE
1002
{
1070
    49
1040
7.0
1070
   290
1070
     1
1002
}
  0
LINE
  5
684B0
330
406
100
AcDbEntity
  8
00構造物
100
AcDbLine
 10
11209.92311285259
 20
2854.942107930117
 30
0.0
 11
11809.92310151926
 21
2854.942107930117
 31
0.0
  0
DIMENSION
  5
684B1
330
406
100
AcDbEntity
  8
00寸法
100
AcDbDimension
  2
*D10
 10
11047.48080473033
 20
4254.942107930117
 30
0.0
 11
11007.20161691307
 21
4304.942107930119
 31
0.0
 70
    32
  1
④(　　)㎜
 71
     5
 42
100.0
 73
     0
 74
     0
 75
     0
  3
15
100
AcDbAlignedDimension
 13
11372.92310718604
 23
4354.942107930117
 33
0.0
 14
11220.92311260326
 24
4254.942107930117
 34
0.0
 50
90.0
100
AcDbRotatedDimension
1001
ACAD
1000
DSTYLE
1002
{
1070
    49
1040
5.0
1070
   290
1070
     1
1002
}
  0
LWPOLYLINE
  5
684B2
330
406
100
AcDbEntity
  8
03IV
100
AcDbPolyline
 90
       10
 70
   128
 43
0.0
 10
11705.49219347181
 20
4393.179820589923
 10
11705.49219347181
 20
4459.816969306614
 42
0.4142135623730951
 10
11675.49219347181
 20
4489.816969306613
 10
11539.92310718592
 20
4489.816969306613
 42
0.4142135623730951
 10
11509.92310718592
 20
4459.816969306614
 10
11509.92310718592
 20
3854.942107930117
 42
0.4142135623730951
 10
11559.92310718592
 20
3804.942107930118
 10
11837.71813598606
 20
3804.942107930118
 42
-0.4142135623730951
 10
11887.71813598606
 20
3754.942107930118
 10
11887.71813598606
 20
3654.599089668133
  0
TEXT
  5
684B3
330
406
100
AcDbEntity
  8
00寸法
  6
Continuous
100
AcDbText
 10
12051.77517920669
 20
3601.892824500087
 30
0.0
 40
52.5
  1
⑫
  7
ゴシック
100
AcDbText
  0
LEADER
  5
684B4
330
406
100
AcDbEntity
  8
00寸法
100
AcDbLeader
  3
15
 76
     3
 10
11887.71813598606
 20
3754.942107930118
 30
0.0
 10
12038.68235564165
 20
3590.66052591776
 30
0.0
 10
12147.72792592013
 20
3590.66052591776
 30
0.0
211
-1.0
221
0.0
231
0.0
210
0.0
220
0.0
230
-1.0
  0
LINE
  5
684B5
330
406
100
AcDbEntity
  8
03IV
100
AcDbLine
 10
11927.71813598606
 20
3654.599089668133
 30
0.0
 11
11847.71813598606
 21
3654.599089668133
 31
0.0
  0
LINE
  5
684B6
330
406
100
AcDbEntity
  8
03IV
100
AcDbLine
 10
11907.71813598606
 20
3643.728008210685
 30
0.0
 11
11867.71813598606
 21
3643.728008210685
 31
0.0
  0
LINE
  5
684B7
330
406
100
AcDbEntity
  8
03IV
100
AcDbLine
 10
11907.71813598606
 20
3643.728008210685
 30
0.0
 11
11907.71813598606
 21
3643.728008210685
 31
0.0
  0
LINE
  5
684B8
330
406
100
AcDbEntity
  8
03IV
100
AcDbLine
 10
11897.71813598606
 20
3630.348196887921
 30
0.0
 11
11877.71813598606
 21
3630.348196887921
 31
0.0
  0
LINE
  5
684B9
330
406
100
AcDbEntity
  8
03IV
100
AcDbLine
 10
11897.71813598606
 20
3630.348196887921
 30
0.0
 11
11897.71813598606
 21
3630.348196887921
 31
0.0
  0
POINT
  5
684BA
330
406
100
AcDbEntity
  8
00文字
100
AcDbPoint
 10
11509.92310718592
 20
4254.942107930117
 30
0.0
  0
POINT
  5
684BB
330
406
100
AcDbEntity
  8
00文字
  6
破線(短)
100
AcDbPoint
 10
11509.92310718592
 20
4254.942107930117
 30
0.0
  0
INSERT
  5
684BC
330
406
100
AcDbEntity
  8
01アンカー
  6
破線(短)
100
AcDbBlockReference
  2
4M24P250L500
 10
11509.92310718592
 20
4254.942107930117
 30
0.0
  0
INSERT
  5
684BD
330
406
100
AcDbEntity
  8
00補助線
  6
Continuous
100
AcDbBlockReference
  2
A$C07505C29
 10
11509.92310718605
 20
4254.942107930117
 30
0.0
  0
LINE
  5
68586
330
406
100
AcDbEntity
  8
00構造物
100
AcDbLine
 10
11809.92310151925
 20
5280.356297721471
 30
0.0
 11
11209.92311285259
 21
5280.356297721471
 31
0.0
  0
LINE
  5
68587
330
406
100
AcDbEntity
  8
00構造物
100
AcDbLine
 10
11209.92311285259
 20
5880.356286388138
 30
0.0
 11
11809.92310151925
 21
5880.356286388138
 31
0.0
  0
LINE
  5
68588
330
406
100
AcDbEntity
  8
00補助線
100
AcDbLine
 10
11798.92310176859
 20
5291.356297472139
 30
0.0
 11
11220.92311260325
 21
5291.356297472139
 31
0.0
  0
LINE
  5
68589
330
406
100
AcDbEntity
  8
00補助線
100
AcDbLine
 10
11220.92311260325
 20
5869.356286637474
 30
0.0
 11
11798.92310176859
 21
5869.356286637474
 31
0.0
  0
LINE
  5
6858A
330
406
100
AcDbEntity
  8
00構造物
100
AcDbLine
 10
11209.92311285259
 20
5280.356297721471
 30
0.0
 11
11209.92311285259
 21
5880.356286388138
 31
0.0
  0
LINE
  5
6858B
330
406
100
AcDbEntity
  8
00補助線
100
AcDbLine
 10
11220.92311260325
 20
5291.356297472139
 30
0.0
 11
11220.92311260325
 21
5869.356286637474
 31
0.0
  0
LINE
  5
6858C
330
406
100
AcDbEntity
  8
00補助線
100
AcDbLine
 10
11220.92311260325
 20
5291.356297472139
 30
0.0
 11
11209.92311285259
 21
5280.356297721471
 31
0.0
  0
LINE
  5
6858D
330
406
100
AcDbEntity
  8
00補助線
100
AcDbLine
 10
11220.92311260326
 20
5869.356286637474
 30
0.0
 11
11209.92311285259
 21
5880.356286388138
 31
0.0
  0
LINE
  5
6858E
330
406
100
AcDbEntity
  8
00補助線
  6
一点鎖線
100
AcDbLine
 10
11509.92310718592
 20
5918.48281416642
 30
0.0
 11
11509.92310718592
 21
5242.22976994319
 31
0.0
  0
LINE
  5
6858F
330
406
100
AcDbEntity
  8
00構造物
100
AcDbLine
 10
11809.92310151925
 20
5880.356286388138
 30
0.0
 11
11809.92310151925
 21
5280.356297721471
 31
0.0
  0
LINE
  5
68590
330
406
100
AcDbEntity
  8
00補助線
100
AcDbLine
 10
11798.92310176859
 20
5869.356286637474
 30
0.0
 11
11798.92310176859
 21
5291.356297472139
 31
0.0
  0
LINE
  5
68591
330
406
100
AcDbEntity
  8
00補助線
100
AcDbLine
 10
11798.92310176859
 20
5291.356297472139
 30
0.0
 11
11809.92310151925
 21
5280.356297721471
 31
0.0
  0
LINE
  5
68592
330
406
100
AcDbEntity
  8
00補助線
100
AcDbLine
 10
11798.92310176859
 20
5869.356286637474
 30
0.0
 11
11809.92310151925
 21
5880.356286388138
 31
0.0
  0
DIMENSION
  5
68593
330
406
100
AcDbEntity
  8
00寸法
  6
Continuous
100
AcDbDimension
  2
*D11
 10
11047.48080473033
 20
5280.356297721471
 30
0.0
 11
11007.20161691307
 21
5580.356292054807
 31
0.0
 70
    32
  1
①(基礎幅)
 71
     5
 42
599.9999886666664
 73
     0
 74
     0
 75
     0
  3
15
100
AcDbAlignedDimension
 13
11209.92311285259
 23
5880.356286388138
 33
0.0
 14
11209.92311285259
 24
5280.356297721471
 34
0.0
 50
270.0
100
AcDbRotatedDimension
1001
ACAD
1000
DSTYLE
1002
{
1070
    49
1040
7.0
1070
   290
1070
     1
1002
}
  0
LWPOLYLINE
  5
68594
330
406
100
AcDbEntity
  8
03IV
100
AcDbPolyline
 90
        4
 70
   128
 43
0.0
 10
11512.67310718592
 20
5562.606292054805
 10
11901.78038586307
 20
5562.606292054805
 42
-0.4142135623730951
 10
11951.78038586307
 20
5512.606292054805
 10
11951.78038586307
 20
5412.26327379282
  0
LINE
  5
68595
330
406
100
AcDbEntity
  8
03IV
100
AcDbLine
 10
11991.78038586307
 20
5412.26327379282
 30
0.0
 11
11911.78038586307
 21
5412.26327379282
 31
0.0
  0
LINE
  5
68596
330
406
100
AcDbEntity
  8
03IV
100
AcDbLine
 10
11971.78038586307
 20
5401.392192335372
 30
0.0
 11
11931.78038586307
 21
5401.392192335372
 31
0.0
  0
LINE
  5
68597
330
406
100
AcDbEntity
  8
03IV
100
AcDbLine
 10
11971.78038586307
 20
5401.392192335372
 30
0.0
 11
11971.78038586307
 21
5401.392192335372
 31
0.0
  0
LINE
  5
68598
330
406
100
AcDbEntity
  8
03IV
100
AcDbLine
 10
11961.78038586307
 20
5388.012381012607
 30
0.0
 11
11941.78038586307
 21
5388.012381012607
 31
0.0
  0
LINE
  5
68599
330
406
100
AcDbEntity
  8
03IV
100
AcDbLine
 10
11961.78038586307
 20
5388.012381012607
 30
0.0
 11
11961.78038586307
 21
5388.012381012607
 31
0.0
  0
CIRCLE
  5
6859A
330
406
100
AcDbEntity
  8
03IV
100
AcDbCircle
 10
11509.92310718592
 20
5562.606292054805
 30
0.0
 40
2.75
  0
POINT
  5
6859B
330
406
100
AcDbEntity
  8
Defpoints
100
AcDbPoint
 10
11509.92310718592
 20
5580.356292054805
 30
0.0
  0
LINE
  5
6859C
330
406
100
AcDbEntity
  8
00補助線
  6
一点鎖線
100
AcDbLine
 10
12108.38626526202
 20
5580.356292054805
 30
0.0
 11
11171.79658507431
 21
5580.356292054805
 31
0.0
  0
DIMENSION
  5
6859D
330
406
100
AcDbEntity
  8
00寸法
  6
Continuous
100
AcDbDimension
  2
*D12
 10
11809.92310151926
 20
5094.260040161336
 30
0.0
 11
11509.92310718592
 21
5134.539227978596
 31
0.0
 70
    32
  1
①(基礎幅)
 71
     5
 42
599.9999886666664
 73
     0
 74
     0
 75
     0
  3
15
100
AcDbAlignedDimension
 13
11209.92311285259
 23
5280.356297721473
 33
0.0
 14
11809.92310151926
 24
5280.356297721473
 34
0.0
100
AcDbRotatedDimension
1001
ACAD
1000
DSTYLE
1002
{
1070
    49
1040
7.0
1070
   290
1070
     1
1002
}
  0
INSERT
  5
6859E
330
406
100
AcDbEntity
  8
01アンカー
  6
破線(短)
100
AcDbBlockReference
  2
4M24P300
 10
11509.92310718592
 20
5580.356292054805
 30
0.0
  0
INSERT
  5
6859F
330
406
100
AcDbEntity
  8
00補助線
  6
Continuous
100
AcDbBlockReference
  2
A$C16D64A1D
 10
11509.92310718592
 20
5580.356292054805
 30
0.0
  0
TEXT
  5
685F8
330
406
100
AcDbEntity
  8
00文字
 62
     4
370
    -3
100
AcDbText
 10
13016.81303964585
 20
4202.909130708767
 30
0.0
 40
31.2
  1
本数
  7
_Gothic_
100
AcDbText
  0
TEXT
  5
685F9
330
406
100
AcDbEntity
  8
00寸法
  6
Continuous
100
AcDbText
 10
12720.57634756249
 20
5297.745220568288
 30
0.0
 40
52.5
  1
②  -M　-P　 -L
  7
ゴシック
100
AcDbText
  0
LEADER
  5
685FA
330
406
100
AcDbEntity
  8
00寸法
  6
Continuous
100
AcDbLeader
  3
15
 76
     3
 10
12826.21205478695
 20
5126.257463055732
 30
0.0
 10
12703.66787074361
 20
5283.384392405022
 30
0.0
 10
13359.04321867818
 20
5283.384392405022
 30
0.0
211
-1.0
221
0.0
231
0.0
  0
DIMENSION
  5
685FE
330
406
100
AcDbEntity
  8
00寸法
100
AcDbDimension
  2
*D13
 10
13438.21205478695
 20
5132.688243674078
 30
0.0
 11
13397.93286696969
 21
4882.688243674079
 31
0.0
 70
    32
  1
②
 71
     5
 42
500.0
 73
     0
 74
     0
 75
     0
  3
15
100
AcDbAlignedDimension
 13
13196.19481074773
 23
4632.688243674078
 33
0.0
 14
13150.21205478695
 24
5132.688243674078
 34
0.0
 50
90.0
100
AcDbRotatedDimension
  0
INSERT
  5
685FF
330
406
100
AcDbEntity
  8
01アンカー
100
AcDbBlockReference
  2
4M24P300L500
 10
12988.21205478696
 20
5032.688243674076
 30
0.0
  0
LINE
  5
68600
330
406
100
AcDbEntity
  8
00寸法
  6
一点鎖線(短)
100
AcDbLine
 10
12988.21205478696
 20
5127.461976882822
 30
0.0
 11
12988.21205478696
 21
4671.329651797676
 31
0.0
  0
DIMENSION
  5
68601
330
406
100
AcDbEntity
  8
00寸法
100
AcDbDimension
  2
*D14
 10
12638.21205478697
 20
5002.688243674078
 30
0.0
 11
12597.9328669697
 21
5067.688243674079
 31
0.0
 70
    32
  1
⑤(　　)㎜
 71
     5
 42
129.9999999999982
 73
     0
 74
     0
 75
     0
  3
15
100
AcDbAlignedDimension
 13
12826.21205478695
 23
5132.688243674076
 33
0.0
 14
12825.71205478695
 24
5002.688243674078
 34
0.0
 50
90.0
100
AcDbRotatedDimension
  0
TEXT
  5
6866D
330
406
100
AcDbEntity
  8
00寸法
  6
Continuous
100
AcDbText
 10
12854.08990187973
 20
5238.852462629139
 30
0.0
 40
30.0
  1
例 4-M24-P300-L500
  7
ゴシック
100
AcDbText
  0
LWPOLYLINE
  5
687D5
330
406
100
AcDbEntity
  8
02FEP
  6
一点鎖線
 62
     4
100
AcDbPolyline
 90
        4
 70
   128
 43
0.0
 10
11509.92310718592
 20
4670.792310452695
 10
11509.92310718592
 20
3942.442107930116
 42
0.4142135623730951
 10
11629.92310718592
 20
3822.442107930116
 10
11980.42173261737
 20
3822.442107930117
  0
ARC
  5
687D6
330
406
100
AcDbEntity
  8
02FEP
 62
     0
100
AcDbCircle
 10
11945.25350071694
 20
3814.942107930117
 30
0.0
 40
9.362158262196372
100
AcDbArc
 50
306.7649820817694
 51
53.23501791823051
  0
ARC
  5
687D7
330
406
100
AcDbEntity
  8
02FEP
 62
     0
100
AcDbCircle
 10
11502.42310618323
 20
4616.838541872737
 30
0.0
 40
9.362155337296705
100
AcDbArc
 50
36.76495812345652
 51
143.2350418766269
  0
ARC
  5
687D8
330
406
100
AcDbEntity
  8
02FEP
 62
     0
100
AcDbCircle
 10
11517.42310595169
 20
4616.838542182679
 30
0.0
 40
9.362155337296705
100
AcDbArc
 50
36.76495812345652
 51
143.2350418766269
  0
ARC
  5
687D9
330
406
100
AcDbEntity
  8
02FEP
 62
     0
100
AcDbCircle
 10
11517.42310618324
 20
4628.045673987531
 30
0.0
 40
9.362155337296705
100
AcDbArc
 50
216.7649581234565
 51
323.2350418766269
  0
LWPOLYLINE
  5
687DA
330
406
100
AcDbEntity
  8
02FEP
100
AcDbPolyline
 90
        4
 70
   128
 43
0.0
 10
11524.92310718592
 20
4622.442106588109
 10
11524.92310718592
 20
3942.442107930116
 42
0.4142135623730951
 10
11629.92310718592
 20
3837.442107930116
 10
11950.85707166111
 20
3837.442107930117
  0
LWPOLYLINE
  5
687DB
330
406
100
AcDbEntity
  8
02FEP
100
AcDbPolyline
 90
        4
 70
   128
 43
0.0
 10
11494.92310718592
 20
4622.442106588109
 10
11494.92310718592
 20
3942.442107930116
 42
0.4142135623730951
 10
11629.92310718592
 20
3807.442107930118
 10
11950.85707166111
 20
3807.442107930118
  0
POINT
  5
687DC
330
406
100
AcDbEntity
  8
00文字
100
AcDbPoint
 10
11509.92310718592
 20
4422.442107930115
 30
0.0
  0
ARC
  5
687DF
330
406
100
AcDbEntity
  8
02FEP
 62
     0
100
AcDbCircle
 10
11945.25350071694
 20
3829.942107930116
 30
0.0
 40
9.362158262196372
100
AcDbArc
 50
306.7649820817694
 51
53.23501791823051
  0
ARC
  5
687E0
330
406
100
AcDbEntity
  8
02FEP
 62
     0
100
AcDbCircle
 10
11956.46064260529
 20
3829.942107930116
 30
0.0
 40
9.362158262196372
100
AcDbArc
 50
126.7649820817694
 51
233.2350179182305
  0
TEXT
  5
687E1
330
406
100
AcDbEntity
  8
00寸法
100
AcDbText
 10
11667.73477438797
 20
4795.517851204808
 30
0.0
 40
50.0
  1
⑧・⑨
  7
ゴシック
100
AcDbText
  0
LEADER
  5
687E2
330
406
100
AcDbEntity
  8
00寸法
100
AcDbLeader
  3
15
 76
     3
 10
11524.92310718592
 20
4539.207440634738
 30
0.0
 10
11664.8765806381
 20
4780.054854433459
 30
0.0
 10
12034.11119766637
 20
4780.054854433459
 30
0.0
211
-1.0
221
0.0
231
0.0
210
0.0
220
0.0
230
-1.0
1001
ACAD
1000
DSTYLE
1002
{
1070
   147
1040
0.5
1070
    77
1070
     0
1002
}
  0
TEXT
  5
687E3
330
406
100
AcDbEntity
  8
00補助線
 62
     4
370
    -3
100
AcDbText
 10
12558.83354997912
 20
4765.729519352131
 30
0.0
 40
50.0
  1
⑥
  7
_Gothic_
100
AcDbText
  0
LEADER
  5
687E7
330
406
100
AcDbEntity
  8
00寸法
100
AcDbLeader
  3
15
 76
     3
 10
12818.82906414484
 20
4664.57123431619
 30
0.0
 10
12754.7286784176
 20
4742.02083018403
 30
0.0
 10
12547.29953305111
 20
4742.02083018403
 30
0.0
1001
ACAD
1000
DSTYLE
1002
{
1070
    77
1070
     0
1002
}
  0
CIRCLE
  5
687E8
330
406
100
AcDbEntity
  8
00補助線
  6
破線(短)
100
AcDbCircle
 10
11512.67310718592
 20
5580.356292054805
 30
0.0
 40
159.4169428965924
  0
TEXT
  5
687E9
330
406
100
AcDbEntity
  8
00寸法
100
AcDbText
 10
11419.75931214015
 20
6029.827401181685
 30
0.0
 40
50.0
  1
⑦
  7
ゴシック
100
AcDbText
  0
LEADER
  5
687EA
330
406
100
AcDbEntity
  8
00寸法
100
AcDbLeader
  3
15
 76
     3
 10
11447.99013894119
 20
5726.061045929024
 30
0.0
 10
11394.77416181909
 20
6014.535624886089
 30
0.0
 10
11754.27116244356
 20
6014.535624886089
 30
0.0
211
-1.0
221
0.0
231
0.0
210
0.0
220
0.0
230
-1.0
1001
ACAD
1000
DSTYLE
1002
{
1070
   147
1040
0.5
1070
    77
1070
     0
1002
}
  0
LINE
  5
687EC
330
406
100
AcDbEntity
  8
00寸法
  6
一点鎖線(短)
 62
     4
 48
0.5
100
AcDbLine
 10
12738.88858003107
 20
5827.606735649428
 30
0.0
 11
13237.53552954285
 21
5827.606735649428
 31
0.0
  0
LINE
  5
687ED
330
406
100
AcDbEntity
  8
00寸法
  6
一点鎖線(短)
 62
     4
 48
0.5
100
AcDbLine
 10
12988.21205478696
 20
6081.14517540472
 30
0.0
 11
12988.21205478696
 21
5574.068295894136
 31
0.0
  0
TEXT
  5
687EE
330
406
100
AcDbEntity
  8
00寸法
  6
Continuous
100
AcDbText
 10
13182.07538838998
 20
5511.250934948543
 30
0.0
 40
52.5
  1
③ FB  ×ｔ   
  7
ゴシック
100
AcDbText
  0
LEADER
  5
687EF
330
406
100
AcDbEntity
  8
00寸法
  6
Continuous
100
AcDbLeader
  3
15
 76
     3
 10
13037.48870982312
 20
5665.507455364308
 30
0.0
 10
13179.5329689728
 20
5496.890106785278
 30
0.0
 10
13676.33303458994
 20
5496.890106785278
 30
0.0
211
-1.0
221
0.0
231
0.0
  0
INSERT
  5
687F0
330
406
100
AcDbEntity
  8
01アンカー
100
AcDbBlockReference
  2
4M24P300
 10
12988.21205478696
 20
5827.606735649428
 30
0.0
  0
DIMENSION
  5
687F1
330
406
100
AcDbEntity
  8
00寸法
100
AcDbDimension
  2
*D15
 10
13338.21205195364
 20
5677.606738482751
 30
0.0
 11
13297.93286413637
 21
5827.606735649429
 31
0.0
 70
    32
  1
②
 71
     5
 42
299.9999943333532
 73
     0
 74
     0
 75
     0
  3
15
100
AcDbAlignedDimension
 13
13176.86362723517
 23
5977.606732816105
 33
0.0
 14
13179.03506404873
 24
5677.606738482751
 34
0.0
 50
90.0
100
AcDbRotatedDimension
  0
DIMENSION
  5
687F3
330
406
100
AcDbEntity
  8
00寸法
100
AcDbDimension
  2
*D16
 10
12838.21205762028
 20
6177.606732816105
 30
0.0
 11
12988.21205478696
 21
6217.885920633364
 31
0.0
 70
    32
  1
②
 71
     5
 42
299.9999943333532
 73
     0
 74
     0
 75
     0
  3
15
100
AcDbAlignedDimension
 13
13138.21205195364
 23
6016.258308097636
 33
0.0
 14
12838.21205762028
 24
6018.429744911196
 34
0.0
100
AcDbRotatedDimension
  0
TEXT
  5
6885C
330
406
100
AcDbEntity
  8
00寸法
  6
Continuous
100
AcDbText
 10
13311.21488171663
 20
5453.047400278641
 30
0.0
 40
30.0
  1
例 FB50×ｔ4.5
  7
ゴシック
100
AcDbText
  0
LWPOLYLINE
  5
6886F
330
406
100
AcDbEntity
  8
00枠
  6
Continuous
100
AcDbPolyline
 90
        4
 70
     1
 43
0.0
 10
12232.47367323643
 20
4192.458475410185
 10
12310.38058225199
 20
4192.458475410185
 10
12310.38058225199
 20
4037.021841627529
 10
12232.47367323643
 20
4037.021841627529
  0
LWPOLYLINE
  5
68870
330
406
100
AcDbEntity
  8
00枠
  6
Continuous
100
AcDbPolyline
 90
        4
 70
     1
 43
0.0
 10
12310.38058225199
 20
4192.458475410185
 10
13013.37922594554
 20
4192.458475410185
 10
13013.37922594554
 20
4037.021841627529
 10
12310.38058225199
 20
4037.021841627529
  0
LWPOLYLINE
  5
68871
330
406
100
AcDbEntity
  8
00枠
  6
Continuous
100
AcDbPolyline
 90
        4
 70
     1
 43
0.0
 10
13013.37922594554
 20
4192.458475410185
 10
13716.37786963908
 20
4192.458475410185
 10
13716.37786963908
 20
4037.021841627529
 10
13013.37922594554
 20
4037.021841627529
  0
TEXT
  5
68872
330
406
100
AcDbEntity
  8
00文字
 62
     4
370
    -3
100
AcDbText
 10
12244.43521987951
 20
3161.628575121301
 30
0.0
 40
44.928
  1
⑨
  7
_Gothic_
100
AcDbText
  0
TEXT
  5
68873
330
406
100
AcDbEntity
  8
00文字
 62
     7
370
    -3
100
AcDbText
 10
12346.04135313295
 20
4094.248377817236
 30
0.0
 40
44.928
  1
フラットバーサイズ
  7
_Gothic_
100
AcDbText
  0
TEXT
  5
68874
330
406
100
AcDbEntity
  8
00文字
 62
     7
370
    -3
100
AcDbText
 10
13028.04495938531
 20
4126.778699439081
 30
0.0
 40
44.928
  1
標準 FB50×t4.5
  7
_Gothic_
100
AcDbText
  0
TEXT
  5
68876
330
406
100
AcDbEntity
  8
00文字
 62
     7
370
    -3
100
AcDbText
 10
13028.04495938531
 20
4055.25811264022
 30
0.0
 40
44.928
  1
その他(FB 　 × t     )
  7
_Gothic_
100
AcDbText
  0
TEXT
  5
6888E
330
406
100
AcDbEntity
  8
00寸法
100
AcDbText
 10
11667.73477438797
 20
4713.619506303623
 30
0.0
 40
50.0
  1
FEP管サイズ
  7
ゴシック
100
AcDbText
  0
DIMENSION
  5
6888F
330
406
100
AcDbEntity
  8
00寸法
  6
Continuous
100
AcDbDimension
  2
*D17
 10
12115.8962328508
 20
3837.442107930117
 30
0.0
 11
12075.61704503354
 21
4046.192107930119
 31
0.0
 70
    32
  1
⑩(　　)㎜
 71
     5
 42
417.5000000000004
 73
     0
 74
     0
 75
     0
  3
15
100
AcDbAlignedDimension
 13
11798.92310176859
 23
4254.942107930117
 33
0.0
 14
11950.85707166111
 24
3837.442107930117
 34
0.0
 50
90.0
100
AcDbRotatedDimension
1001
ACAD
1000
DSTYLE
1002
{
1070
    49
1040
10.0
1070
   290
1070
     1
1002
}
  0
TEXT
  5
688F6
330
406
100
AcDbEntity
  8
00寸法
100
AcDbText
 10
10934.38253801834
 20
4663.241964455641
 30
0.0
 40
50.0
  1
⑪ FEP管・ｱｰｽ
  7
ゴシック
100
AcDbText
  0
LEADER
  5
688F7
330
406
100
AcDbEntity
  8
00寸法
100
AcDbLeader
  3
15
 76
     3
 10
11494.92310718592
 20
4373.230513629676
 30
0.0
 10
11371.39132692738
 20
4657.100100379341
 30
0.0
 10
10924.29321047259
 20
4657.100100379341
 30
0.0
210
0.0
220
0.0
230
-1.0
1001
ACAD
1000
DSTYLE
1002
{
1070
   147
1040
0.5
1070
    77
1070
     0
1002
}
  0
TEXT
  5
688F8
330
406
100
AcDbEntity
  8
00寸法
100
AcDbText
 10
10928.34690962624
 20
4596.790510426939
 30
0.0
 40
50.0
  1
(　　)㎜出し
  7
ゴシック
100
AcDbText
  0
TEXT
  5
68945
330
406
100
AcDbEntity
  8
00寸法
100
AcDbText
 10
12112.01671068117
 20
5880.4841767908
 30
0.0
 40
50.0
  1
⑪ FEP管・ｱｰｽ
  7
ゴシック
100
AcDbText
  0
LEADER
  5
68946
330
406
100
AcDbEntity
  8
00寸法
100
AcDbLeader
  3
15
 76
     3
 10
11998.39843092314
 20
5595.356292054805
 30
0.0
 10
12101.92738313542
 20
5874.3423127145
 30
0.0
 10
12545.77087209028
 20
5874.3423127145
 30
0.0
211
-1.0
221
0.0
231
0.0
210
0.0
220
0.0
230
-1.0
1001
ACAD
1000
DSTYLE
1002
{
1070
   147
1040
0.5
1070
    77
1070
     0
1002
}
  0
TEXT
  5
68947
330
406
100
AcDbEntity
  8
00寸法
100
AcDbText
 10
12140.57366037353
 20
5814.032722762099
 30
0.0
 40
50.0
  1
(　　)㎜出し
  7
ゴシック
100
AcDbText
  0
LINE
  5
689B0
330
406
100
AcDbEntity
  8
02FEP
100
AcDbLine
 10
12069.11366096285
 20
5565.356292054801
 30
0.0
 11
11509.92310718592
 21
5565.356292054804
 31
0.0
  0
LINE
  5
689B1
330
406
100
AcDbEntity
  8
02FEP
100
AcDbLine
 10
12069.11365907016
 20
5595.356292054805
 30
0.0
 11
11509.92310718592
 21
5595.356292054805
 31
0.0
  0
CIRCLE
  5
689B2
330
406
100
AcDbEntity
  8
02FEP
100
AcDbCircle
 10
11509.92310718592
 20
5580.356292054805
 30
0.0
 40
15.0
  0
ARC
  5
689B3
330
406
100
AcDbEntity
  8
02FEP
 62
     0
100
AcDbCircle
 10
12063.51009490546
 20
5572.856292054808
 30
0.0
 40
9.362155337296705
100
AcDbArc
 50
306.7649581234875
 51
53.23504187651248
  0
ARC
  5
689B4
330
406
100
AcDbEntity
  8
02FEP
 62
     0
100
AcDbCircle
 10
12063.5100952154
 20
5587.856291823269
 30
0.0
 40
9.362155337296705
100
AcDbArc
 50
306.7649581234875
 51
53.23504187651248
  0
ARC
  5
689B5
330
406
100
AcDbEntity
  8
02FEP
 62
     0
100
AcDbCircle
 10
12074.71722702025
 20
5587.856292054819
 30
0.0
 40
9.362155337296705
100
AcDbArc
 50
126.7649581234875
 51
233.2350418765125
  0
LINE
  5
689B6
330
406
100
AcDbEntity
  8
Defpoints
  6
一点鎖線
 48
0.5
100
AcDbLine
 10
11509.92310718592
 20
5630.01427677737
 30
0.0
 11
11509.92310718592
 21
5530.698307332239
 31
0.0
  0
LWPOLYLINE
  5
689BA
330
406
100
AcDbEntity
  8
00枠
  6
Continuous
100
AcDbPolyline
 90
        4
 70
     1
 43
0.0
 10
12232.47367323643
 20
2482.65550380097
 10
12310.38058225199
 20
2482.65550380097
 10
12310.38058225199
 20
2327.218870018314
 10
12232.47367323643
 20
2327.218870018314
  0
LWPOLYLINE
  5
689BB
330
406
100
AcDbEntity
  8
00枠
  6
Continuous
100
AcDbPolyline
 90
        4
 70
     1
 43
0.0
 10
12310.38058225199
 20
2482.65550380097
 10
13013.37922594554
 20
2482.65550380097
 10
13013.37922594554
 20
2327.218870018314
 10
12310.38058225199
 20
2327.218870018314
  0
LWPOLYLINE
  5
689BC
330
406
100
AcDbEntity
  8
00枠
  6
Continuous
100
AcDbPolyline
 90
        4
 70
     1
 43
0.0
 10
13013.37922594554
 20
2482.65550380097
 10
13716.37786963908
 20
2482.65550380097
 10
13716.37786963908
 20
2327.218870018314
 10
13013.37922594554
 20
2327.218870018314
  0
TEXT
  5
689BD
330
406
100
AcDbEntity
  8
00文字
 62
     4
370
    -3
100
AcDbText
 10
12244.43521987951
 20
2384.445406208021
 30
0.0
 40
44.928
  1
⑫
  7
_Gothic_
100
AcDbText
  0
TEXT
  5
689BE
330
406
100
AcDbEntity
  8
00文字
 62
     7
370
    -3
100
AcDbText
 10
12346.04135313295
 20
2573.08375139216
 30
0.0
 40
44.928
  1
FEP管・アース線
  7
_Gothic_
100
AcDbText
  0
TEXT
  5
689BF
330
406
100
AcDbEntity
  8
00文字
 62
     7
370
    -3
100
AcDbText
 10
13028.04495938531
 20
2572.783054956725
 30
0.0
 40
44.928
  1
上部　　　
  7
_Gothic_
100
AcDbText
  0
TEXT
  5
689C1
330
406
100
AcDbEntity
  8
00文字
 62
     7
370
    -3
100
AcDbText
 10
12346.04135313295
 20
2500.43261446366
 30
0.0
 40
44.928
  1
出しの長さ
  7
_Gothic_
100
AcDbText
  0
TEXT
  5
689C2
330
406
100
AcDbEntity
  8
00文字
 62
     7
370
    -3
100
AcDbText
 10
13365.88408733865
 20
2572.783054956725
 30
0.0
 40
44.928
  1
㎜出し
  7
_Gothic_
100
AcDbText
  0
TEXT
  5
689C3
330
406
100
AcDbEntity
  8
00文字
 62
     7
370
    -3
100
AcDbText
 10
13028.04495938531
 20
2502.480382919131
 30
0.0
 40
44.928
  1
側部　　　
  7
_Gothic_
100
AcDbText
  0
TEXT
  5
689C4
330
406
100
AcDbEntity
  8
00文字
 62
     7
370
    -3
100
AcDbText
 10
13365.88408733865
 20
2503.076177125229
 30
0.0
 40
44.928
  1
㎜出し
  7
_Gothic_
100
AcDbText
  0
TEXT
  5
689F6
330
406
100
AcDbEntity
  8
00寸法
100
AcDbText
 10
11496.21398074021
 20
6033.066941455348
 30
0.0
 40
50.0
  1
φ(　　)
  7
ゴシック
100
AcDbText
  0
INSERT
  5
68A89
330
406
100
AcDbEntity
  8
04文字
  6
Continuous
100
AcDbBlockReference
  2
A$C00D50416
 10
11225.69980284105
 20
2293.270902398781
 30
0.0
 41
1.920000000000527
 42
1.919999999999902
 43
1.919999999999999
  0
TEXT
  5
68A8A
330
406
100
AcDbEntity
  8
04文字
 62
     7
100
AcDbText
 10
11640.28579862124
 20
2169.747002750293
 30
0.0
 40
63.0
  1
株式会社
  7
ゴシック
100
AcDbText
  0
TEXT
  5
68A8B
330
406
100
AcDbEntity
  8
04文字
 62
     7
100
AcDbText
 10
11221.28312488422
 20
2169.747002750293
 30
0.0
 40
63.0
  1
フジコン
 41
1.25
  7
ゴシック
100
AcDbText
  0
TEXT
  5
68A8C
330
406
100
AcDbEntity
  8
04文字
 62
     7
100
AcDbText
 10
11235.08477835839
 20
2255.7082454603
 30
0.0
 40
30.0
  1
人と未来の創造
  7
ゴシック
100
AcDbText
  0
POINT
  5
68A99
330
406
100
AcDbEntity
  8
Defpoints
 62
     7
100
AcDbPoint
 10
10890.93936663179
 20
6277.499999999999
 30
0.0
  0
LINE
  5
68A9A
330
406
100
AcDbEntity
  8
00枠
 62
     7
100
AcDbLine
 10
11271.7602628871
 20
6131.872246240103
 30
0.0
 11
10918.06483141502
 21
6131.872246240124
 31
0.0
  0
TEXT
  5
68A9B
330
406
100
AcDbEntity
  8
00文字
 62
     7
100
AcDbText
 10
10932.4587157722
 20
6143.880215714967
 30
0.0
 40
84.0
  1
平面図
  7
ゴシック
100
AcDbText
  0
TEXT
  5
68A9C
330
406
100
AcDbEntity
  8
00文字
 62
     7
100
AcDbText
 10
10939.50773642296
 20
4871.127082003653
 30
0.0
 40
84.0
  1
側面図
  7
ゴシック
100
AcDbText
  0
LINE
  5
68A9D
330
406
100
AcDbEntity
  8
00枠
 62
     7
100
AcDbLine
 10
11280.30147258148
 20
4859.906493239274
 30
0.0
 11
10918.93091420584
 21
4859.906493239272
 31
0.0
  0
TEXT
  5
68AE1
330
406
100
AcDbEntity
  8
00文字
 62
     7
100
AcDbText
 10
13085.31587286699
 20
4407.066458821032
 30
0.0
 40
50.0
  1
*
  7
ゴシック
 72
     4
 11
13101.55952768933
 21
4423.183210090067
 31
0.0
100
AcDbText
  0
TEXT
  5
69563
330
406
100
AcDbEntity
  8
00文字
 62
     7
370
    -3
100
AcDbText
 10
13019.78069478999
 20
3650.823370995092
 30
0.0
 40
20.0
  1
(※ネジ部、ナット、ワッシャー)
  7
_Gothic_
100
AcDbText
  0
TEXT
  5
6957F
330
406
100
AcDbEntity
  8
00文字
 62
     7
370
    -3
100
AcDbText
 10
12346.04135313295
 20
2384.445406208021
 30
0.0
 40
44.928
  1
アース線
  7
_Gothic_
100
AcDbText
  0
TEXT
  5
69580
330
406
100
AcDbEntity
  8
00文字
 62
     7
370
    -3
100
AcDbText
 10
13028.04495938531
 20
2417.346421174068
 30
0.0
 40
44.928
  1
IV5.5・IE5.5
  7
_Gothic_
100
AcDbText
  0
TEXT
  5
69581
330
406
100
AcDbEntity
  8
00文字
 62
     7
370
    -3
100
AcDbText
 10
13225.30996960534
 20
2348.131755217686
 30
0.0
 40
44.928
  1
その他(　　　　)
  7
_Gothic_
100
AcDbText
  0
TEXT
  5
6958D
330
406
100
AcDbEntity
  8
00文字
 62
     7
370
    -3
100
AcDbText
 10
13427.66823589382
 20
3783.375110251924
 30
0.0
 40
44.928
  1
mm
  7
_Gothic_
100
AcDbText
  0
TEXT
  5
6958E
330
406
100
AcDbEntity
  8
00文字
 62
     4
370
    -3
100
AcDbText
 10
13105.41874944559
 20
3739.643405395878
 30
0.0
 40
31.2
  1
（ネジ切長さ+ネジ径以上）
  7
_Gothic_
100
AcDbText
  0
TEXT
  5
695B7
330
406
100
AcDbEntity
  8
00文字
 62
     7
370
    -3
100
AcDbText
 10
13063.12087629752
 20
2164.030996355509
 30
0.0
 40
40.0
  1
溶融亜鉛メッキ(HDZ・　　）
  7
_Gothic_
100
AcDbText
  0
TEXT
  5
695CC
330
406
100
AcDbEntity
  8
00文字
 62
     7
370
    -3
100
AcDbText
 10
12346.04135313295
 20
3783.375110251924
 30
0.0
 40
44.928
  1
アンカーネジ切り寸法
  7
_Gothic_
100
AcDbText
  0
TEXT
  5
695D0
330
406
100
AcDbEntity
  8
00文字
 62
     7
370
    -3
100
AcDbText
 10
12346.04135313295
 20
3938.81174403458
 30
0.0
 40
44.928
  1
アンカー頭出し寸法
  7
_Gothic_
100
AcDbText
  0
TEXT
  5
695E3
330
406
100
AcDbEntity
  8
00文字
 62
     7
100
AcDbText
 10
13296.84543925256
 20
4407.066458821032
 30
0.0
 40
50.0
  1
*
  7
ゴシック
 72
     4
 11
13313.08909407489
 21
4423.183210090067
 31
0.0
100
AcDbText
  0
TEXT
  5
695E4
330
406
100
AcDbEntity
  8
00文字
 62
     7
100
AcDbText
 10
13518.58965360754
 20
4407.066458821032
 30
0.0
 40
50.0
  1
*
  7
ゴシック
 72
     4
 11
13534.83330842988
 21
4423.183210090067
 31
0.0
100
AcDbText
  0
TEXT
  5
695E5
330
406
100
AcDbEntity
  8
00文字
 62
     7
100
AcDbText
 10
13039.23555755523
 20
4254.394278575312
 30
0.0
 40
50.0
  1
*
  7
ゴシック
 72
     4
 11
13055.47921237756
 21
4270.511029844348
 31
0.0
100
AcDbText
  0
TEXT
  5
695E6
330
406
100
AcDbEntity
  8
00文字
 62
     7
100
AcDbText
 10
13252.78714085454
 20
4256.665218587786
 30
0.0
 40
50.0
  1
*
  7
ゴシック
 72
     4
 11
13269.03079567688
 21
4272.781969856821
 31
0.0
100
AcDbText
  0
TEXT
  5
695E7
330
406
100
AcDbEntity
  8
00文字
 62
     7
100
AcDbText
 10
13435.4389322129
 20
4255.769792502692
 30
0.0
 40
50.0
  1
*
  7
ゴシック
 72
     4
 11
13451.68258703524
 21
4271.886543771727
 31
0.0
100
AcDbText
  0
TEXT
  5
695E8
330
406
100
AcDbEntity
  8
00文字
 62
     7
100
AcDbText
 10
13617.1683946256
 20
4257.100618138124
 30
0.0
 40
50.0
  1
*
  7
ゴシック
 72
     4
 11
13633.41204944793
 21
4273.217369407159
 31
0.0
100
AcDbText
  0
TEXT
  5
695E9
330
406
100
AcDbEntity
  8
00文字
 62
     7
100
AcDbText
 10
13330.03104916133
 20
4053.213005312128
 30
0.0
 40
50.0
  1
*
  7
ゴシック
 72
     4
 11
13346.27470398367
 21
4069.329756581163
 31
0.0
100
AcDbText
  0
TEXT
  5
695EA
330
406
100
AcDbEntity
  8
00文字
 62
     7
100
AcDbText
 10
13576.20734390722
 20
4052.852401978939
 30
0.0
 40
50.0
  1
*
  7
ゴシック
 72
     4
 11
13592.45099872956
 21
4068.969153247975
 31
0.0
100
AcDbText
  0
TEXT
  5
695EB
330
406
100
AcDbEntity
  8
00文字
 62
     7
100
AcDbText
 10
13318.70634549682
 20
3937.55468244276
 30
0.0
 40
50.0
  1
*
  7
ゴシック
 72
     4
 11
13334.95000031915
 21
3953.671433711795
 31
0.0
100
AcDbText
  0
TEXT
  5
695EC
330
406
100
AcDbEntity
  8
00文字
 62
     7
100
AcDbText
 10
13316.85521885273
 20
3781.786983910738
 30
0.0
 40
50.0
  1
*
  7
ゴシック
 72
     4
 11
13333.09887367506
 21
3797.903735179774
 31
0.0
100
AcDbText
  0
TEXT
  5
695ED
330
406
100
AcDbEntity
  8
00文字
 62
     7
100
AcDbText
 10
13338.69933292374
 20
3465.040702125361
 30
0.0
 40
50.0
  1
*
  7
ゴシック
 72
     4
 11
13354.94298774608
 21
3481.157453394396
 31
0.0
100
AcDbText
  0
TEXT
  5
695EE
330
406
100
AcDbEntity
  8
00文字
 62
     7
100
AcDbText
 10
13320.55643093756
 20
3010.129162234195
 30
0.0
 40
50.0
  1
*
  7
ゴシック
 72
     4
 11
13336.80008575989
 21
3026.245913503231
 31
0.0
100
AcDbText
  0
ELLIPSE
  5
695F0
330
406
100
AcDbEntity
  8
0
  6
Continuous
100
AcDbEllipse
 10
13205.75443034245
 20
3694.337227408778
 30
0.0
 11
-150.261062674057
 21
0.0
 31
0.0
210
0.0
220
0.0
230
1.0
 40
0.1577666979365515
 41
0.0
 42
6.283185307179586
  0
ELLIPSE
  5
695F1
330
406
100
AcDbEntity
  8
0
  6
Continuous
100
AcDbEllipse
 10
13368.14846386326
 20
3596.470990838076
 30
0.0
 11
-98.55346414513405
 21
0.0
 31
0.0
210
0.0
220
0.0
230
1.0
 40
0.240541434967851
 41
0.0
 42
6.283185307179586
  0
TEXT
  5
695F8
330
406
100
AcDbEntity
  8
00文字
 62
     7
100
AcDbText
 10
13522.35054658251
 20
3279.090750449524
 30
0.0
 40
50.0
  1
*
  7
ゴシック
 72
     4
 11
13538.59420140484
 21
3295.20750171856
 31
0.0
100
AcDbText
  0
ELLIPSE
  5
695F9
330
406
100
AcDbEntity
  8
0
  6
Continuous
100
AcDbEllipse
 10
13087.53264254991
 20
3370.945517774574
 30
0.0
 11
-80.95174421721095
 21
0.0
 31
0.0
210
0.0
220
0.0
230
1.0
 40
0.3887370705471481
 41
0.0
 42
6.283185307179586
  0
ELLIPSE
  5
695FA
330
406
100
AcDbEntity
  8
0
  6
Continuous
100
AcDbEllipse
 10
13081.88087491527
 20
3220.966405765145
 30
0.0
 11
-50.68902302482171
 21
0.0
 31
0.0
210
0.0
220
0.0
230
1.0
 40
0.4397417866450672
 41
0.0
 42
6.283185307179586
  0
TEXT
  5
695FB
330
406
100
AcDbEntity
  8
00文字
 62
     7
100
AcDbText
 10
13576.67311625873
 20
3125.394357974185
 30
0.0
 40
50.0
  1
*
  7
ゴシック
 72
     4
 11
13592.91677108106
 21
3141.511109243221
 31
0.0
100
AcDbText
  0
ELLIPSE
  5
695FC
330
406
100
AcDbEntity
  8
0
  6
Continuous
100
AcDbEllipse
 10
13826.63591315144
 20
2870.265791604806
 30
0.0
 11
-50.68902302482171
 21
0.0
 31
0.0
210
0.0
220
0.0
230
1.0
 40
0.8466869681283801
 41
0.0
 42
6.283185307179586
  0
TEXT
  5
695FD
330
406
100
AcDbEntity
  8
00文字
 62
     7
100
AcDbText
 10
13239.06330528272
 20
2570.2607188455
 30
0.0
 40
50.0
  1
*
  7
ゴシック
 72
     4
 11
13255.30696010505
 21
2586.377470114535
 31
0.0
100
AcDbText
  0
TEXT
  5
695FE
330
406
100
AcDbEntity
  8
00文字
 62
     7
100
AcDbText
 10
13240.14130520646
 20
2501.363175309457
 30
0.0
 40
50.0
  1
*
  7
ゴシック
 72
     4
 11
13256.3849600288
 21
2517.479926578492
 31
0.0
100
AcDbText
  0
TEXT
  5
695FF
330
406
100
AcDbEntity
  8
00文字
 62
     7
100
AcDbText
 10
13519.84425934276
 20
2348.637505338725
 30
0.0
 40
50.0
  1
*
  7
ゴシック
 72
     4
 11
13536.0879141651
 21
2364.75425660776
 31
0.0
100
AcDbText
  0
TEXT
  5
69600
330
406
100
AcDbEntity
  8
00文字
 62
     7
100
AcDbText
 10
13603.37384583873
 20
2158.559830551764
 30
0.0
 40
50.0
  1
*
  7
ゴシック
 72
     4
 11
13619.61750066107
 21
2174.6765818208
 31
0.0
100
AcDbText
  0
TEXT
  5
69601
330
406
100
AcDbEntity
  8
00文字
 62
     7
100
AcDbText
 10
12262.46447039601
 20
2207.316811089125
 30
0.0
 40
50.0
  1
*
  7
ゴシック
 72
     4
 11
12278.70812521834
 21
2223.43356235816
 31
0.0
100
AcDbText
  0
ELLIPSE
  5
69602
330
406
100
AcDbEntity
  8
0
  6
Continuous
100
AcDbEllipse
 10
13103.07816633696
 20
2439.246002512869
 30
0.0
 11
-80.95174421721095
 21
0.0
 31
0.0
210
0.0
220
0.0
230
1.0
 40
0.3887370705471481
 41
0.0
 42
6.283185307179586
  0
ENDSEC
  0
SECTION
  2
OBJECTS
  0
DICTIONARY
  5
C
330
0
100
AcDbDictionary
281
     1
  3
ACAD_COLOR
350
62857
  3
ACAD_GROUP
350
D
  3
ACAD_IMAGE_DICT
350
6360C
  3
ACAD_LAYOUT
350
6287F
  3
ACAD_MATERIAL
350
6282D
  3
ACAD_MLEADERSTYLE
350
6287C
  3
ACAD_MLINESTYLE
350
E
  3
ACAD_PLOTSETTINGS
350
62880
  3
ACAD_PLOTSTYLENAME
350
6282B
  3
ACAD_SCALELIST
350
6285A
  3
ACAD_TABLESTYLE
350
62858
  3
ACAD_VISUALSTYLE
350
62846
  3
ACDB_RECOMPOSE_DATA
350
628A4
  3
AcDbVariableDictionary
350
6289B
  0
DICTIONARY
  5
62B8D
330
409
100
AcDbDictionary
280
     1
281
     1
  3
ACAD_LAYERFILTERS
360
695D7
  3
ACAD_LAYERSTATES
360
62B8E
  3
ACLYDICTIONARY
360
695D6
  0
DICTIONARY
  5
62885
330
40A
100
AcDbDictionary
280
     1
281
     1
  3
ADSK_XREC_LAYER_RECONCILED
360
62886
  0
DICTIONARY
  5
62A27
330
62A26
100
AcDbDictionary
280
     1
281
     1
  0
DICTIONARY
  5
62A29
330
62A28
100
AcDbDictionary
280
     1
281
     1
  0
DICTIONARY
  5
62A2B
330
62A2A
100
AcDbDictionary
280
     1
281
     1
  0
DICTIONARY
  5
62A2D
330
62A2C
100
AcDbDictionary
280
     1
281
     1
  0
DICTIONARY
  5
62A2F
330
62A2E
100
AcDbDictionary
280
     1
281
     1
  0
DICTIONARY
  5
68A72
330
68A71
100
AcDbDictionary
280
     1
281
     1
  0
DICTIONARY
  5
628DB
330
406
100
AcDbDictionary
280
     1
281
     1
  3
ACAD_SORTENTS
360
628DC
  0
DICTIONARY
  5
65596
330
65595
100
AcDbDictionary
280
     1
281
     1
  3
ACAD_SORTENTS
360
65597
  0
DICTIONARY
  5
65696
330
65695
100
AcDbDictionary
280
     1
281
     1
  3
ACAD_SORTENTS
360
65697
  0
DICTIONARY
  5
656FF
330
656FE
100
AcDbDictionary
280
     1
281
     1
  3
ACAD_SORTENTS
360
65700
  0
DICTIONARY
  5
6571B
330
6571A
100
AcDbDictionary
280
     1
281
     1
  3
ACAD_SORTENTS
360
6571C
  0
DICTIONARY
  5
65723
330
65722
100
AcDbDictionary
280
     1
281
     1
  3
ACAD_SORTENTS
360
65724
  0
DICTIONARY
  5
6572A
330
65729
100
AcDbDictionary
280
     1
281
     1
  3
ACAD_SORTENTS
360
6572B
  0
DICTIONARY
  5
66E00
330
66DFF
100
AcDbDictionary
280
     1
281
     1
  3
ACAD_SORTENTS
360
66E01
  0
DICTIONARY
  5
68A30
330
68A2F
100
AcDbDictionary
280
     1
281
     1
  3
ACAD_SORTENTS
360
68A31
  0
DICTIONARY
  5
62857
102
{ACAD_REACTORS
330
C
102
}
330
C
100
AcDbDictionary
281
     1
  0
DICTIONARY
  5
D
330
C
100
AcDbDictionary
281
     1
  0
DICTIONARY
  5
6360C
102
{ACAD_REACTORS
330
C
102
}
330
C
100
AcDbDictionary
281
     1
  3
01
350
6360D
  3
03
350
6360E
  0
DICTIONARY
  5
6287F
102
{ACAD_REACTORS
330
C
102
}
330
C
100
AcDbDictionary
281
     1
  3
Model
350
62881
  3
レイアウト1
350
62882
  0
DICTIONARY
  5
6282D
102
{ACAD_REACTORS
330
C
102
}
330
C
100
AcDbDictionary
281
     1
  3
ByBlock
350
62836
  3
ByLayer
350
6282E
  3
Global
350
6283E
  0
DICTIONARY
  5
6287C
102
{ACAD_REACTORS
330
C
102
}
330
C
100
AcDbDictionary
281
     1
  3
Standard
350
6287D
  0
DICTIONARY
  5
E
330
C
100
AcDbDictionary
281
     1
  3
STANDARD
350
13
  0
DICTIONARY
  5
62880
102
{ACAD_REACTORS
330
C
102
}
330
C
100
AcDbDictionary
281
     1
  3
A3共同溝40
350
687C0
  3
A3共同溝社内用30
350
687C1
  3
A3横20
350
687C2
  3
A4縦15
350
63611
  3
A4縦20
350
6408F
  3
A4縦25
350
62A4C
  0
ACDBDICTIONARYWDFLT
  5
6282B
102
{ACAD_REACTORS
330
C
102
}
330
C
100
AcDbDictionary
281
     1
  3
Normal
350
6282C
100
AcDbDictionaryWithDefault
340
6282C
  0
DICTIONARY
  5
6285A
102
{ACAD_REACTORS
330
C
102
}
330
C
100
AcDbDictionary
281
     1
  3
*A1
350
62A4D
  3
*A10
350
62B0F
  3
*A100
350
62B59
  3
*A101
350
62ABF
  3
*A102
350
62A67
  3
*A103
350
62B5A
  3
*A104
350
62B5B
  3
*A105
350
62B5C
  3
*A106
350
62B5D
  3
*A107
350
62B5E
  3
*A108
350
62B5F
  3
*A109
350
62B60
  3
*A11
350
62B10
  3
*A110
350
62B61
  3
*A111
350
62B62
  3
*A112
350
62A56
  3
*A113
350
62AC0
  3
*A114
350
62B63
  3
*A115
350
62A68
  3
*A116
350
62B64
  3
*A117
350
62B65
  3
*A118
350
62B66
  3
*A119
350
62B67
  3
*A12
350
62B11
  3
*A120
350
62B68
  3
*A121
350
62B69
  3
*A122
350
62B6A
  3
*A123
350
62B6B
  3
*A124
350
62AC1
  3
*A125
350
62B6C
  3
*A126
350
62B6D
  3
*A127
350
62A69
  3
*A128
350
62B6E
  3
*A129
350
62B6F
  3
*A13
350
62AB8
  3
*A130
350
62B70
  3
*A131
350
62B71
  3
*A132
350
62B72
  3
*A133
350
62B73
  3
*A134
350
62B74
  3
*A135
350
62AC2
  3
*A136
350
62B75
  3
*A137
350
62B76
  3
*A138
350
62B77
  3
*A139
350
62A4F
  3
*A14
350
62B12
  3
*A140
350
62A6A
  3
*A141
350
62B78
  3
*A142
350
62B79
  3
*A143
350
62B7A
  3
*A144
350
62B7B
  3
*A145
350
62B7C
  3
*A146
350
62AC3
  3
*A147
350
62B7D
  3
*A148
350
62B7E
  3
*A149
350
62B7F
  3
*A15
350
62B13
  3
*A150
350
62B80
  3
*A151
350
62B81
  3
*A152
350
62A6B
  3
*A153
350
62B82
  3
*A154
350
62B83
  3
*A155
350
62B84
  3
*A156
350
62B85
  3
*A157
350
62A58
  3
*A158
350
62B86
  3
*A159
350
62B87
  3
*A16
350
62A4E
  3
*A160
350
62B88
  3
*A161
350
62B89
  3
*A162
350
62B8A
  3
*A163
350
62B8B
  3
*A164
350
62A6C
  3
*A165
350
62B8C
  3
*A166
350
68A76
  3
*A167
350
68A77
  3
*A168
350
62AC4
  3
*A169
350
68A78
  3
*A17
350
62A60
  3
*A170
350
68A79
  3
*A171
350
68A7A
  3
*A172
350
68A7B
  3
*A173
350
68A7C
  3
*A174
350
68A7D
  3
*A175
350
68A7E
  3
*A176
350
62A6D
  3
*A177
350
62A6E
  3
*A178
350
62A6F
  3
*A179
350
62AC5
  3
*A18
350
62B14
  3
*A180
350
62A70
  3
*A181
350
62A71
  3
*A182
350
62A72
  3
*A183
350
62A73
  3
*A184
350
62A50
  3
*A185
350
62A74
  3
*A186
350
62A75
  3
*A187
350
62A76
  3
*A188
350
62A77
  3
*A189
350
62A78
  3
*A19
350
62B15
  3
*A190
350
62AC6
  3
*A191
350
62A79
  3
*A192
350
62A7A
  3
*A193
350
62A7B
  3
*A194
350
62A7C
  3
*A195
350
62A7D
  3
*A196
350
62A51
  3
*A197
350
62A7E
  3
*A198
350
62A7F
  3
*A199
350
62A80
  3
*A2
350
62AB7
  3
*A20
350
62B16
  3
*A200
350
62A81
  3
*A201
350
62AC7
  3
*A202
350
62A82
  3
*A203
350
62A83
  3
*A204
350
62A84
  3
*A205
350
62A85
  3
*A206
350
62A86
  3
*A207
350
62A87
  3
*A208
350
62A52
  3
*A209
350
62A88
  3
*A21
350
62B17
  3
*A210
350
62A89
  3
*A211
350
62A8A
  3
*A212
350
62AC8
  3
*A213
350
62A8B
  3
*A214
350
62A8C
  3
*A215
350
62A8D
  3
*A216
350
62A8E
  3
*A217
350
62A8F
  3
*A218
350
62A90
  3
*A219
350
62A91
  3
*A22
350
62B18
  3
*A220
350
62A53
  3
*A221
350
62A92
  3
*A222
350
62A93
  3
*A223
350
62AB0
  3
*A224
350
62AC9
  3
*A225
350
62A94
  3
*A226
350
62A95
  3
*A227
350
62A96
  3
*A228
350
62A97
  3
*A229
350
62A98
  3
*A23
350
62B19
  3
*A230
350
62A99
  3
*A231
350
62A9A
  3
*A232
350
62A9B
  3
*A233
350
62A54
  3
*A234
350
62A9C
  3
*A235
350
62ACA
  3
*A236
350
62A9D
  3
*A237
350
62A9E
  3
*A238
350
62A9F
  3
*A239
350
62AA0
  3
*A24
350
62AB9
  3
*A240
350
62AA1
  3
*A241
350
62AA2
  3
*A242
350
62AA3
  3
*A243
350
62AA4
  3
*A244
350
62AA5
  3
*A245
350
62A55
  3
*A246
350
62ACB
  3
*A247
350
62AA6
  3
*A248
350
62AA7
  3
*A249
350
62AA8
  3
*A25
350
62B1A
  3
*A250
350
62AA9
  3
*A251
350
62AAA
  3
*A252
350
62AAB
  3
*A253
350
62AAC
  3
*A254
350
62AAD
  3
*A255
350
62AAE
  3
*A256
350
62AAF
  3
*A257
350
62ACC
  3
*A258
350
62ACD
  3
*A259
350
62A59
  3
*A26
350
62B1B
  3
*A260
350
62ACE
  3
*A261
350
62ACF
  3
*A262
350
62AD0
  3
*A263
350
62AD1
  3
*A264
350
62AB1
  3
*A265
350
62AD2
  3
*A266
350
62AD3
  3
*A267
350
62AD4
  3
*A268
350
62AD5
  3
*A269
350
62AD6
  3
*A27
350
62B1C
  3
*A270
350
62AD7
  3
*A271
350
62A5A
  3
*A272
350
62AD8
  3
*A273
350
62AD9
  3
*A274
350
62ADA
  3
*A275
350
62AB2
  3
*A276
350
62ADB
  3
*A277
350
62ADC
  3
*A278
350
62ADD
  3
*A279
350
62ADE
  3
*A28
350
62B1D
  3
*A280
350
62ADF
  3
*A281
350
62AE0
  3
*A282
350
62AE1
  3
*A283
350
62A5B
  3
*A284
350
62AE2
  3
*A285
350
62AE3
  3
*A286
350
62AB3
  3
*A287
350
62AE4
  3
*A288
350
62AE5
  3
*A289
350
62AE6
  3
*A29
350
62A61
  3
*A290
350
62AE7
  3
*A291
350
62AE8
  3
*A292
350
62AE9
  3
*A293
350
62AEA
  3
*A294
350
62AEB
  3
*A295
350
62A5C
  3
*A296
350
62AEC
  3
*A297
350
62AB4
  3
*A298
350
62AED
  3
*A299
350
62AEE
  3
*A3
350
62B09
  3
*A30
350
62B1E
  3
*A300
350
62AEF
  3
*A301
350
62AF0
  3
*A302
350
62AF1
  3
*A303
350
62AF2
  3
*A304
350
62AF3
  3
*A305
350
62AF4
  3
*A306
350
62AF5
  3
*A307
350
62A5D
  3
*A308
350
62AB5
  3
*A309
350
62AF6
  3
*A31
350
62B1F
  3
*A310
350
62AF7
  3
*A311
350
62AF8
  3
*A312
350
62AF9
  3
*A313
350
62AFA
  3
*A314
350
62AFB
  3
*A315
350
62AFC
  3
*A316
350
62AFD
  3
*A317
350
62AFE
  3
*A318
350
62AFF
  3
*A319
350
62AB6
  3
*A32
350
62B20
  3
*A320
350
62A5E
  3
*A321
350
62B00
  3
*A322
350
62B01
  3
*A323
350
62B02
  3
*A324
350
62B03
  3
*A325
350
62B04
  3
*A326
350
62B05
  3
*A327
350
62B06
  3
*A328
350
62B07
  3
*A329
350
62B08
  3
*A33
350
62B21
  3
*A34
350
62B22
  3
*A35
350
62A57
  3
*A36
350
62B23
  3
*A37
350
62B24
  3
*A38
350
62B25
  3
*A39
350
62B26
  3
*A4
350
62A5F
  3
*A40
350
62B27
  3
*A41
350
62A62
  3
*A42
350
62B28
  3
*A43
350
62B29
  3
*A44
350
62B2A
  3
*A45
350
62B2B
  3
*A46
350
62ABA
  3
*A47
350
62B2C
  3
*A48
350
62B2D
  3
*A49
350
62B2E
  3
*A5
350
62B0A
  3
*A50
350
62B2F
  3
*A51
350
62B30
  3
*A52
350
62B31
  3
*A53
350
62A63
  3
*A54
350
62B32
  3
*A55
350
62B33
  3
*A56
350
62B34
  3
*A57
350
62ABB
  3
*A58
350
62B35
  3
*A59
350
62B36
  3
*A6
350
62B0B
  3
*A60
350
62B37
  3
*A61
350
62B38
  3
*A62
350
62B39
  3
*A63
350
62B3A
  3
*A64
350
62B3B
  3
*A65
350
62A64
  3
*A66
350
62B3C
  3
*A67
350
62B3D
  3
*A68
350
62ABC
  3
*A69
350
62B3E
  3
*A7
350
62B0C
  3
*A70
350
62B3F
  3
*A71
350
62B40
  3
*A72
350
62B41
  3
*A73
350
62B42
  3
*A74
350
62B43
  3
*A75
350
62B44
  3
*A76
350
62B45
  3
*A77
350
62A65
  3
*A78
350
62B46
  3
*A79
350
62ABD
  3
*A8
350
62B0D
  3
*A80
350
62B47
  3
*A81
350
62B48
  3
*A82
350
62B49
  3
*A83
350
62B4A
  3
*A84
350
62B4B
  3
*A85
350
62B4C
  3
*A86
350
62B4D
  3
*A87
350
62B4E
  3
*A88
350
62B4F
  3
*A89
350
62A66
  3
*A9
350
62B0E
  3
*A90
350
62ABE
  3
*A91
350
62B50
  3
*A92
350
62B51
  3
*A93
350
62B52
  3
*A94
350
62B53
  3
*A95
350
62B54
  3
*A96
350
62B55
  3
*A97
350
62B56
  3
*A98
350
62B57
  3
*A99
350
62B58
  3
A0
350
6285B
  3
A1
350
6285C
  3
A2
350
6285D
  3
A3
350
6285E
  3
A4
350
6285F
  3
A5
350
62860
  3
A6
350
62861
  3
A7
350
62862
  3
A8
350
62863
  3
A9
350
62864
  3
B0
350
62865
  3
B1
350
62866
  3
B2
350
62867
  3
B3
350
62868
  3
B4
350
62869
  3
B5
350
6286A
  3
B6
350
6286B
  3
B7
350
6286C
  3
B8
350
6286D
  3
B9
350
6286E
  3
C0
350
6286F
  3
C1
350
62870
  3
C2
350
62871
  3
C3
350
62872
  3
C4
350
62873
  3
C5
350
62874
  3
C6
350
62875
  3
C7
350
62876
  3
C8
350
62877
  3
C9
350
62878
  3
D0
350
62879
  3
D1
350
6287A
  3
D2
350
6287B
  0
DICTIONARY
  5
62858
102
{ACAD_REACTORS
330
C
102
}
330
C
100
AcDbDictionary
281
     1
  3
Standard
350
62859
  0
DICTIONARY
  5
62846
102
{ACAD_REACTORS
330
C
102
}
330
C
100
AcDbDictionary
281
     1
  3
2dWireframe
350
6284C
  3
3D Hidden
350
6284E
  3
3dWireframe
350
6284D
  3
Basic
350
6284B
  3
Brighten
350
62852
  3
ColorChange
350
62856
  3
Conceptual
350
6284F
  3
Dim
350
62851
  3
Facepattern
350
62855
  3
Flat
350
62847
  3
FlatWithEdges
350
62848
  3
Gouraud
350
62849
  3
GouraudWithEdges
350
6284A
  3
Linepattern
350
62854
  3
Realistic
350
62850
  3
Thicken
350
62853
  0
XRECORD
  5
628A4
102
{ACAD_REACTORS
330
C
102
}
330
C
100
AcDbXrecord
280
     1
 90
        1
330
62859
  0
DICTIONARY
  5
6289B
102
{ACAD_REACTORS
330
C
102
}
330
C
100
AcDbDictionary
281
     1
  3
CANNOSCALE
350
6289E
  3
CMLEADERSTYLE
350
6289D
  3
CTABLESTYLE
350
6289C
  3
DIMASSOC
350
628A1
  3
INDEXCTL
350
628A0
  3
LIGHTINGUNITS
350
695DA
  3
MSLTSCALE
350
695D9
  3
SORTENTS
350
6289F
  0
DICTIONARY
  5
695D7
102
{ACAD_REACTORS
330
62B8D
102
}
330
62B8D
100
AcDbDictionary
281
     1
  0
DICTIONARY
  5
62B8E
102
{ACAD_REACTORS
330
62B8D
102
}
330
62B8D
100
AcDbDictionary
281
     1
  0
DICTIONARY
  5
695D6
102
{ACAD_REACTORS
330
62B8D
102
}
330
62B8D
100
AcDbDictionary
281
     1
1001
ACAD
1000
<All
  0
XRECORD
  5
62886
102
{ACAD_REACTORS
330
62885
102
}
330
62885
100
AcDbXrecord
280
     1
290
     1
  0
SORTENTSTABLE
  5
628DC
102
{ACAD_REACTORS
330
628DB
102
}
330
628DB
100
AcDbSortentsTable
330
406
331
629A3
  5
629A3
331
629EA
  5
629EA
331
629AB
  5
629AB
331
687F1
  5
687F1
331
68593
  5
68593
331
684B4
  5
684B4
331
629B3
  5
629B3
331
62974
  5
62974
331
629F2
  5
629F2
331
688F8
  5
688F8
331
6859B
  5
6859B
331
684BC
  5
684BC
331
62A0A
  5
62A0A
331
629D3
  5
629D3
331
68871
  5
68871
331
629DB
  5
629DB
331
65583
  5
65583
331
687DA
  5
687DA
331
687E2
  5
687E2
331
689B0
  5
689B0
331
687EA
  5
687EA
331
6858C
  5
6858C
331
684AD
  5
684AD
331
629A4
  5
629A4
331
629AC
  5
629AC
331
6296D
  5
6296D
331
68594
  5
68594
331
684B5
  5
684B5
331
629F3
  5
629F3
331
629B4
  5
629B4
331
6859C
  5
6859C
331
6297D
  5
6297D
331
684BD
  5
684BD
331
6298D
  5
6298D
331
107B
  5
107B
331
629D4
  5
629D4
331
62995
  5
62995
331
68872
  5
68872
331
629DC
  5
629DC
331
6299D
  5
6299D
331
687DB
  5
687DB
331
689B1
  5
689B1
331
687E3
  5
687E3
331
6858D
  5
6858D
331
684AE
  5
684AE
331
629E4
  5
629E4
331
629EC
  5
629EC
331
629AD
  5
629AD
331
6296E
  5
6296E
331
689C1
  5
689C1
331
687F3
  5
687F3
331
684B6
  5
684B6
331
629F4
  5
629F4
331
629B5
  5
629B5
331
68595
  5
68595
331
6297E
  5
6297E
331
6859D
  5
6859D
331
62A04
  5
62A04
331
629CD
  5
629CD
331
629D5
  5
629D5
331
62996
  5
62996
331
68873
  5
68873
331
629DD
  5
629DD
331
6299E
  5
6299E
331
687DC
  5
687DC
331
689B2
  5
689B2
331
684A7
  5
684A7
331
68586
  5
68586
331
689BA
  5
689BA
331
687EC
  5
687EC
331
6858E
  5
6858E
331
684AF
  5
684AF
331
629E5
  5
629E5
331
6296F
  5
6296F
331
629ED
  5
629ED
331
689C2
  5
689C2
331
68596
  5
68596
331
684B7
  5
684B7
331
6297F
  5
6297F
331
6859E
  5
6859E
331
6885C
  5
6885C
331
6866D
  5
6866D
331
62A05
  5
62A05
331
62987
  5
62987
331
62A0D
  5
62A0D
331
62997
  5
62997
331
687D5
  5
687D5
331
685FE
  5
685FD
331
629DE
  5
629DE
331
6299F
  5
6299F
331
68874
  5
68874
331
68A89
  5
68A89
331
689B3
  5
689B3
331
68587
  5
68587
331
684A8
  5
684A8
331
68A99
  5
68A99
331
687ED
  5
687ED
331
6858F
  5
6858F
331
689BB
  5
689BB
331
629E6
  5
629E6
331
629A7
  5
629A7
331
684B0
  5
684B0
331
629EE
  5
629EE
331
629AF
  5
629AF
331
62970
  5
62970
331
689C3
  5
689C3
331
68597
  5
68597
331
629F6
  5
629F6
331
684B8
  5
684B8
331
6859F
  5
6859F
331
62980
  5
62980
331
62988
  5
62988
331
62A06
  5
62A06
331
64B0F
  5
64B0F
331
687D6
  5
687D6
331
629DF
  5
629DF
331
685FF
  5
685FE
331
68A8A
  5
68A8A
331
689B4
  5
689B4
331
68588
  5
68588
331
684A9
  5
684A9
331
68AE1
  5
68AE1
331
68A9A
  5
68A9A
331
689BC
  5
689BC
331
687EE
  5
687EE
331
629A8
  5
629A8
331
629E7
  5
629E7
331
684B1
  5
684B1
331
629EF
  5
629EF
331
62971
  5
62971
331
68590
  5
68590
331
689C4
  5
689C4
331
68598
  5
68598
331
684B9
  5
684B9
331
62979
  5
62979
331
629F7
  5
629F7
331
62981
  5
62981
331
62A07
  5
62A07
331
629C8
  5
629C8
331
687D7
  5
687D7
331
685F8
  5
68601
331
62A17
  5
62A17
331
629D8
  5
629D8
331
68945
  5
68945
331
68876
  5
68876
331
687DF
  5
687DF
331
68600
  5
685FF
331
689B5
  5
689B5
331
6888E
  5
6888E
331
687E7
  5
687E7
331
68589
  5
68589
331
684AA
  5
684AA
331
68A8B
  5
68A8B
331
68A9B
  5
68A9B
331
689BD
  5
689BD
331
687EF
  5
687EF
331
629E8
  5
629E8
331
629A9
  5
629A9
331
68591
  5
68591
331
62972
  5
62972
331
684B2
  5
684B2
331
68599
  5
68599
331
684BA
  5
684BA
331
6297A
  5
6297A
331
629F8
  5
629F8
331
688F6
  5
688F6
331
629B9
  5
629B9
331
62982
  5
62982
331
FC8
  5
FC8
331
62A08
  5
62A08
331
629C9
  5
629C9
331
629D1
  5
629D1
331
6886F
  5
6886F
331
685F9
  5
685F8
331
62A18
  5
62A18
331
6299A
  5
6299A
331
687D8
  5
687D8
331
68946
  5
68946
331
687E0
  5
687E0
331
68601
  5
68600
331
68A8C
  5
68A8C
331
689B6
  5
689B6
331
687E8
  5
687E8
331
6858A
  5
6858A
331
684AB
  5
684AB
331
6888F
  5
6888F
331
68A9C
  5
68A9C
331
689BE
  5
689BE
331
629E9
  5
629E9
331
687F0
  5
687F0
331
68592
  5
68592
331
629F1
  5
629F1
331
62973
  5
62973
331
684B3
  5
684B3
331
6859A
  5
6859A
331
684BB
  5
684BB
331
629F9
  5
629F9
331
688F7
  5
688F7
331
689F6
  5
689F6
331
629BA
  5
629BA
331
62983
  5
62983
331
62A09
  5
62A09
331
629CA
  5
629CA
331
629D2
  5
629D2
331
68870
  5
68870
331
687D9
  5
687D9
331
629DA
  5
629DA
331
685FA
  5
685F9
331
68947
  5
68947
331
687E1
  5
687E1
331
6858B
  5
6858B
331
684AC
  5
684AC
331
687E9
  5
687E9
331
689BF
  5
689BF
331
68A9D
  5
68A9D
  0
SORTENTSTABLE
  5
65597
102
{ACAD_REACTORS
330
65596
102
}
330
65596
100
AcDbSortentsTable
330
65595
  0
SORTENTSTABLE
  5
65697
102
{ACAD_REACTORS
330
65696
102
}
330
65696
100
AcDbSortentsTable
330
65695
  0
SORTENTSTABLE
  5
65700
102
{ACAD_REACTORS
330
656FF
102
}
330
656FF
100
AcDbSortentsTable
330
656FE
  0
SORTENTSTABLE
  5
6571C
102
{ACAD_REACTORS
330
6571B
102
}
330
6571B
100
AcDbSortentsTable
330
6571A
  0
SORTENTSTABLE
  5
65724
102
{ACAD_REACTORS
330
65723
102
}
330
65723
100
AcDbSortentsTable
330
65722
  0
SORTENTSTABLE
  5
6572B
102
{ACAD_REACTORS
330
6572A
102
}
330
6572A
100
AcDbSortentsTable
330
65729
  0
SORTENTSTABLE
  5
66E01
102
{ACAD_REACTORS
330
66E00
102
}
330
66E00
100
AcDbSortentsTable
330
66DFF
  0
SORTENTSTABLE
  5
68A31
102
{ACAD_REACTORS
330
68A30
102
}
330
68A30
100
AcDbSortentsTable
330
68A2F
  0
IMAGEDEF
  5
6360D
102
{ACAD_REACTORS
330
6360C
102
}
330
6360C
100
AcDbRasterImageDef
 90
        0
  1
C:\Documents and Settings\Degu\デスクトップ\個人資料\フジコン-1.tif
 10
1012.0
 20
1432.0
 11
0.127
 21
0.127
280
     1
281
     5
  0
IMAGEDEF
  5
6360E
102
{ACAD_REACTORS
330
6360C
102
}
330
6360C
100
AcDbRasterImageDef
 90
        0
  1
C:\My Documents\03.tif
 10
9685.0
 20
7322.0
 11
0.0846666666666667
 21
0.0846666666666667
280
     1
281
     5
  0
LAYOUT
  5
62881
102
{ACAD_REACTORS
330
6287F
102
}
330
6287F
100
AcDbPlotSettings
  1

  2
Adobe PDF
  4
A4
  6

 40
3.174999952316284
 41
3.174999952316284
 42
3.175003051757812
 43
3.17498779296875
 44
209.9098358154297
 45
297.0318298339844
 46
-3.496399383795837
 47
-3.549868429334445
 48
10740.93936663179
 49
1972.5
140
13890.93936663179
141
6427.500000000001
142
1.0
143
380.0000000000002
 70
 11940
 72
     0
 73
     0
 74
     4
  7
monochrome_T（縮小）補強筋結束青.ctb
 75
     0
147
0.0026315789473684
 76
     0
 77
     2
 78
   300
148
-272819.8599124475
149
-50101.5
100
AcDbLayout
  1
Model
 70
     1
 71
     0
 10
0.0
 20
0.0
 11
12.0
 21
9.0
 12
0.0
 22
0.0
 32
0.0
 14
0.0
 24
0.0
 34
0.0
 15
0.0
 25
0.0
 35
0.0
146
0.0
 13
0.0
 23
0.0
 33
0.0
 16
1.0
 26
0.0
 36
0.0
 17
0.0
 27
1.0
 37
0.0
 76
     0
330
406
331
191
1001
ACAD_PSEXT
1000
Adobe PDF
1000
Adobe PDF Converter
1000
Documents\*.pdf
1000

1070
     0
  0
LAYOUT
  5
62882
102
{ACAD_REACTORS
330
6287F
102
}
330
6287F
100
AcDbPlotSettings
  1

  2
Microsoft XPS Document Writer
  4

  6

 40
0.0
 41
0.0
 42
0.0
 43
0.0
 44
0.0
 45
0.0
 46
0.0
 47
0.0
 48
0.0
 49
0.0
140
0.0
141
0.0
142
1.0
143
1.0
 70
   688
 72
     0
 73
     0
 74
     5
  7
monochrome_T（縮小）補強筋結束青.ctb
 75
    16
147
1.0
 76
     0
 77
     2
 78
   300
148
0.0
149
0.0
100
AcDbLayout
  1
レイアウト1
 70
     1
 71
     1
 10
0.0
 20
0.0
 11
12.0
 21
9.0
 12
0.0
 22
0.0
 32
0.0
 14
1.000000000000000E+20
 24
1.000000000000000E+20
 34
1.000000000000000E+20
 15
-1.000000000000000E+20
 25
-1.000000000000000E+20
 35
-1.000000000000000E+20
146
0.0
 13
0.0
 23
0.0
 33
0.0
 16
1.0
 26
0.0
 36
0.0
 17
0.0
 27
1.0
 37
0.0
 76
     0
330
407
  0
MATERIAL
  5
62836
102
{ACAD_XDICTIONARY
360
62837
102
}
102
{ACAD_REACTORS
330
6282D
102
}
330
6282D
100
AcDbMaterial
  1
ByBlock
 72
     0
 43
0.0208333333333333
 43
0.0
 43
0.0
 43
0.0
 43
0.0
 43
0.0208333333333333
 43
0.0
 43
0.0
 43
0.0
 43
0.0
 43
1.0
 43
0.0
 43
0.0
 43
0.0
 43
0.0
 43
1.0
 77
     0
 47
0.0208333333333333
 47
0.0
 47
0.0
 47
0.0
 47
0.0
 47
0.0208333333333333
 47
0.0
 47
0.0
 47
0.0
 47
0.0
 47
1.0
 47
0.0
 47
0.0
 47
0.0
 47
0.0
 47
1.0
171
     0
 49
0.0208333333333333
 49
0.0
 49
0.0
 49
0.0
 49
0.0
 49
0.0208333333333333
 49
0.0
 49
0.0
 49
0.0
 49
0.0
 49
1.0
 49
0.0
 49
0.0
 49
0.0
 49
0.0
 49
1.0
175
     0
142
0.0208333333333333
142
0.0
142
0.0
142
0.0
142
0.0
142
0.0208333333333333
142
0.0
142
0.0
142
0.0
142
0.0
142
1.0
142
0.0
142
0.0
142
0.0
142
0.0
142
1.0
179
     0
144
0.0208333333333333
144
0.0
144
0.0
144
0.0
144
0.0
144
0.0208333333333333
144
0.0
144
0.0
144
0.0
144
0.0
144
1.0
144
0.0
144
0.0
144
0.0
144
0.0
144
1.0
147
0.0208333333333333
147
0.0
147
0.0
147
0.0
147
0.0
147
0.0208333333333333
147
0.0
147
0.0
147
0.0
147
0.0
147
1.0
147
0.0
147
0.0
147
0.0
147
0.0
147
1.0
  0
MATERIAL
  5
6282E
102
{ACAD_XDICTIONARY
360
6282F
102
}
102
{ACAD_REACTORS
330
6282D
102
}
330
6282D
100
AcDbMaterial
  1
ByLayer
 72
     0
 43
0.0208333333333333
 43
0.0
 43
0.0
 43
0.0
 43
0.0
 43
0.0208333333333333
 43
0.0
 43
0.0
 43
0.0
 43
0.0
 43
1.0
 43
0.0
 43
0.0
 43
0.0
 43
0.0
 43
1.0
 77
     0
 47
0.0208333333333333
 47
0.0
 47
0.0
 47
0.0
 47
0.0
 47
0.0208333333333333
 47
0.0
 47
0.0
 47
0.0
 47
0.0
 47
1.0
 47
0.0
 47
0.0
 47
0.0
 47
0.0
 47
1.0
171
     0
 49
0.0208333333333333
 49
0.0
 49
0.0
 49
0.0
 49
0.0
 49
0.0208333333333333
 49
0.0
 49
0.0
 49
0.0
 49
0.0
 49
1.0
 49
0.0
 49
0.0
 49
0.0
 49
0.0
 49
1.0
175
     0
142
0.0208333333333333
142
0.0
142
0.0
142
0.0
142
0.0
142
0.0208333333333333
142
0.0
142
0.0
142
0.0
142
0.0
142
1.0
142
0.0
142
0.0
142
0.0
142
0.0
142
1.0
179
     0
144
0.0208333333333333
144
0.0
144
0.0
144
0.0
144
0.0
144
0.0208333333333333
144
0.0
144
0.0
144
0.0
144
0.0
144
1.0
144
0.0
144
0.0
144
0.0
144
0.0
144
1.0
147
0.0208333333333333
147
0.0
147
0.0
147
0.0
147
0.0
147
0.0208333333333333
147
0.0
147
0.0
147
0.0
147
0.0
147
1.0
147
0.0
147
0.0
147
0.0
147
0.0
147
1.0
  0
MATERIAL
  5
6283E
102
{ACAD_XDICTIONARY
360
6283F
102
}
102
{ACAD_REACTORS
330
6282D
102
}
330
6282D
100
AcDbMaterial
  1
Global
 72
     0
 43
0.0208333333333333
 43
0.0
 43
0.0
 43
0.0
 43
0.0
 43
0.0208333333333333
 43
0.0
 43
0.0
 43
0.0
 43
0.0
 43
1.0
 43
0.0
 43
0.0
 43
0.0
 43
0.0
 43
1.0
 77
     0
 47
0.0208333333333333
 47
0.0
 47
0.0
 47
0.0
 47
0.0
 47
0.0208333333333333
 47
0.0
 47
0.0
 47
0.0
 47
0.0
 47
1.0
 47
0.0
 47
0.0
 47
0.0
 47
0.0
 47
1.0
171
     0
 49
0.0208333333333333
 49
0.0
 49
0.0
 49
0.0
 49
0.0
 49
0.0208333333333333
 49
0.0
 49
0.0
 49
0.0
 49
0.0
 49
1.0
 49
0.0
 49
0.0
 49
0.0
 49
0.0
 49
1.0
175
     0
142
0.0208333333333333
142
0.0
142
0.0
142
0.0
142
0.0
142
0.0208333333333333
142
0.0
142
0.0
142
0.0
142
0.0
142
1.0
142
0.0
142
0.0
142
0.0
142
0.0
142
1.0
179
     0
144
0.0208333333333333
144
0.0
144
0.0
144
0.0
144
0.0
144
0.0208333333333333
144
0.0
144
0.0
144
0.0
144
0.0
144
1.0
144
0.0
144
0.0
144
0.0
144
0.0
144
1.0
147
0.0208333333333333
147
0.0
147
0.0
147
0.0
147
0.0
147
0.0208333333333333
147
0.0
147
0.0
147
0.0
147
0.0
147
1.0
147
0.0
147
0.0
147
0.0
147
0.0
147
1.0
  0
MLEADERSTYLE
  5
6287D
102
{ACAD_REACTORS
330
6287C
102
}
330
6287C
100
AcDbMLeaderStyle
170
     2
171
     1
172
     0
 90
        2
 40
0.0
 41
0.0
173
     1
 91
-1056964608
340
1F5
 92
       -2
290
     1
 42
0.09
291
     1
 43
0.36
  3
Standard
 44
0.18
300

342
201
174
     1
178
     6
175
     1
176
     0
 93
-1056964608
 45
0.18
292
     0
297
     0
 46
0.18
 94
-1056964608
 47
1.0
 49
1.0
140
1.0
293
     1
141
0.0
294
     1
177
     0
142
1.0
295
     0
296
     0
143
0.125
1001
ACAD_MLEADERVER
1070
     2
  0
MLINESTYLE
  5
13
330
E
100
AcDbMlineStyle
  2
STANDARD
 70
     0
  3

 62
   256
 51
90.0
 52
90.0
 71
     0
  0
PLOTSETTINGS
  5
687C0
102
{ACAD_REACTORS
330
62880
102
}
330
62880
100
AcDbPlotSettings
  1
A3共同溝40
  2
瞬簡PDF
  4
A3
  6

 40
3.174999952316284
 41
3.174999952316284
 42
3.17498779296875
 43
3.17498779296875
 44
296.9259948730469
 45
419.9466552734374
 46
-3.211996436119079
 47
-3.451666235923767
 48
7112.596181128757
 49
22176.32202808166
140
23932.59618112876
141
34056.32202808166
142
1.0
143
40.0
 70
 11940
 72
     1
 73
     1
 74
     4
  7
monochrome_T（縮小）.ctb
 75
     0
147
0.05
 76
     0
 77
     2
 78
   300
148
-7112.596181128757
149
-22176.32202808166
1001
ACAD_PSEXT
1000
瞬簡PDF
1000
瞬簡PDF
1000
C:\Documents and Settings\All Users\Documents\Xelo\ShunkanPDF\PDF Port
1000

1070
     0
  0
PLOTSETTINGS
  5
687C1
102
{ACAD_REACTORS
330
62880
102
}
330
62880
100
AcDbPlotSettings
  1
A3共同溝社内用30
  2
瞬簡PDF
  4
A3
  6

 40
3.174999952316284
 41
3.174999952316284
 42
3.17498779296875
 43
3.17498779296875
 44
296.9259948730469
 45
419.9466552734374
 46
-3.211996436119079
 47
-3.45166623592388
 48
54003.73156605538
 49
6999.895933196675
140
66618.73156605539
141
15909.89593319667
142
1.0
143
30.0
 70
 11940
 72
     1
 73
     1
 74
     4
  7
配筋図T（縮小）結束用.ctb
 75
     0
147
0.05
 76
     0
 77
     2
 78
   300
148
-54003.73156605538
149
-6999.895933196675
1001
ACAD_PSEXT
1000
瞬簡PDF
1000
瞬簡PDF
1000
C:\Documents and Settings\All Users\Documents\Xelo\ShunkanPDF\PDF Port
1000

1070
     0
  0
PLOTSETTINGS
  5
687C2
102
{ACAD_REACTORS
330
62880
102
}
330
62880
100
AcDbPlotSettings
  1
A3横20
  2
瞬簡PDF
  4
A3
  6

 40
3.174999952316284
 41
3.174999952316284
 42
3.17498779296875
 43
3.17498779296875
 44
296.9259948730469
 45
419.9466552734374
 46
-3.211996436119079
 47
-3.201666235923596
 48
-3001.199890351753
 49
28116.32202808166
140
5398.800109648241
141
34056.32202808166
142
1.0
143
20.0
 70
 11940
 72
     1
 73
     1
 74
     4
  7
monochrome_T（縮小）.ctb
 75
     0
147
0.05
 76
     0
 77
     2
 78
   300
148
3001.199890351753
149
-28116.32202808166
1001
ACAD_PSEXT
1000
瞬簡PDF
1000
瞬簡PDF
1000
C:\Documents and Settings\All Users\Documents\Xelo\ShunkanPDF\PDF Port
1000

1070
     0
  0
PLOTSETTINGS
  5
63611
102
{ACAD_REACTORS
330
62880
102
}
330
62880
100
AcDbPlotSettings
  1
A4縦15
  2
Adobe PDF
  4
A4
  6

 40
3.174999952316284
 41
3.174999952316284
 42
3.175003051757812
 43
3.17498779296875
 44
209.9098358154297
 45
297.0318298339844
 46
-3.220083594322204
 47
-3.159078955650329
 48
0.0
 49
0.0
140
3150.0
141
4455.0
142
1.0
143
15.0
 70
 11940
 72
     1
 73
     0
 74
     4
  7
monochrome_T（縮小）補強筋.ctb
 75
     0
147
0.05
 76
     0
 77
     2
 78
   300
148
0.0
149
0.0
1001
ACAD_PSEXT
1000
Adobe PDF
1000
Adobe PDF Converter
1000
Documents\*.pdf
1000

1070
     0
  0
PLOTSETTINGS
  5
6408F
102
{ACAD_REACTORS
330
62880
102
}
330
62880
100
AcDbPlotSettings
  1
A4縦20
  2
Adobe PDF
  4
A4
  6

 40
3.174999952316284
 41
3.174999952316284
 42
3.175003051757812
 43
3.17498779296875
 44
209.9098358154297
 45
297.0318298339844
 46
-3.220083594322204
 47
-3.159078955650329
 48
0.0
 49
0.0
140
4200.0
141
5940.0
142
1.0
143
20.0
 70
 11940
 72
     1
 73
     0
 74
     4
  7
monochrome_T（縮小）補強筋.ctb
 75
     0
147
0.05
 76
     0
 77
     2
 78
   300
148
0.0
149
0.0
1001
ACAD_PSEXT
1000
Adobe PDF
1000
Adobe PDF Converter
1000
Documents\*.pdf
1000

1070
     0
  0
PLOTSETTINGS
  5
62A4C
102
{ACAD_REACTORS
330
62880
102
}
330
62880
100
AcDbPlotSettings
  1
A4縦25
  2
Adobe PDF
  4
A4
  6

 40
3.174999952316284
 41
3.174999952316284
 42
3.175003051757812
 43
3.17498779296875
 44
209.9098358154297
 45
297.0318298339844
 46
-3.220083594322204
 47
-3.159078955650329
 48
0.0
 49
0.0
140
5250.0
141
7425.0
142
1.0
143
25.0
 70
 11940
 72
     1
 73
     0
 74
     4
  7
monochrome_T（縮小）補強筋.ctb
 75
     0
147
0.1
 76
     0
 77
     2
 78
   300
148
0.0
149
0.0
1001
ACAD_PSEXT
1000
Adobe PDF
1000
Adobe PDF Converter
1000
Documents\*.pdf
1000

1070
     0
  0
ACDBPLACEHOLDER
  5
6282C
102
{ACAD_REACTORS
330
6282B
102
}
330
6282B
  0
SCALE
  5
62A4D
102
{ACAD_REACTORS
330
6285A
102
}
330
6285A
100
AcDbScale
 70
     0
300
1:1000
140
1.0
141
1.0
290
     0
1001
ACAD
1000
AcRTDxfName
1000
SCALE
1000
AcRTDxfName
1000
SCALE
1000
AcRTDxfName
1000
SCALE
1000
AcRTDxfName
1000
SCALE
1000
AcRTDxfName
1000
SCALE
1000
AcRTDxfName
1000
SCALE
1000
AcRTDxfName
1000
SCALE
1000
AcRTDxfName
1000
SCALE
1000
AcRTDxfName
1000
SCALE
1000
AcRTDxfName
1000
SCALE
  0
SCALE
  5
62B0F
102
{ACAD_REACTORS
330
6285A
102
}
330
6285A
100
AcDbScale
 70
     0
300
1:10_5_2_2
140
1.0
141
10.0
290
     0
1001
ACAD
1000
AcRTDxfName
1000
SCALE
1000
AcRTDxfName
1000
SCALE
1000
AcRTDxfName
1000
SCALE
1000
AcRTDxfName
1000
SCALE
1000
AcRTDxfName
1000
SCALE
1000
AcRTDxfName
1000
SCALE
1000
AcRTDxfName
1000
SCALE
  0
SCALE
  5
62B59
102
{ACAD_REACTORS
330
6285A
102
}
330
6285A
100
AcDbScale
 70
     0
300
1:10_1_7
140
1.0
141
10.0
290
     0
1001
ACAD
1000
AcRTDxfName
1000
SCALE
1000
AcRTDxfName
1000
SCALE
1000
AcRTDxfName
1000
SCALE
1000
AcRTDxfName
1000
SCALE
1000
AcRTDxfName
1000
SCALE
1000
AcRTDxfName
1000
SCALE
1000
AcRTDxfName
1000
SCALE
  0
SCALE
  5
62ABF
102
{ACAD_REACTORS
330
6285A
102
}
330
6285A
100
AcDbScale
 70
     0
300
1:5_12
140
1.0
141
0.005
290
     0
1001
ACAD
1000
AcRTDxfName
1000
SCALE
1000
AcRTDxfName
1000
SCALE
1000
AcRTDxfName
1000
SCALE
1000
AcRTDxfName
1000
SCALE
1000
AcRTDxfName
1000
SCALE
1000
AcRTDxfName
1000
SCALE
1000
AcRTDxfName
1000
SCALE
  0
SCALE
  5
62A67
102
{ACAD_REACTORS
330
6285A
102
}
330
6285A
100
AcDbScale
 70
     0
300
1:1_2
140
1.0
141
0.001
290
     0
1001
ACAD
1000
AcRTDxfName
1000
SCALE
1000
AcRTDxfName
1000
SCALE
1000
AcRTDxfName
1000
SCALE
1000
AcRTDxfName
1000
SCALE
1000
AcRTDxfName
1000
SCALE
1000
AcRTDxfName
1000
SCALE
1000
AcRTDxfName
1000
SCALE
1000
AcRTDxfName
1000
SCALE
1000
AcRTDxfName
1000
SCALE
1000
AcRTDxfName
1000
SCALE
  0
SCALE
  5
62B5A
102
{ACAD_REACTORS
330
6285A
102
}
330
6285A
100
AcDbScale
 70
     0
300
1:5_1_7
140
1.0
141
5.0
290
     0
1001
ACAD
1000
AcRTDxfName
1000
SCALE
1000
AcRTDxfName
1000
SCALE
1000
AcRTDxfName
1000
SCALE
1000
AcRTDxfName
1000
SCALE
1000
AcRTDxfName
1000
SCALE
1000
AcRTDxfName
1000
SCALE
1000
AcRTDxfName
1000
SCALE
  0
SCALE
  5
62B5B
102
{ACAD_REACTORS
330
6285A
102
}
330
6285A
100
AcDbScale
 70
     0
300
1:2_5_2_2
140
1.0
141
2.0
290
     0
1001
ACAD
1000
AcRTDxfName
1000
SCALE
1000
AcRTDxfName
1000
SCALE
1000
AcRTDxfName
1000
SCALE
1000
AcRTDxfName
1000
SCALE
1000
AcRTDxfName
1000
SCALE
1000
AcRTDxfName
1000
SCALE
1000
AcRTDxfName
1000
SCALE
  0
SCALE
  5
62B5C
102
{ACAD_REACTORS
330
6285A
102
}
330
6285A
100
AcDbScale
 70
     0
300
1:50_6_3
140
1.0
141
0.05
290
     0
1001
ACAD
1000
AcRTDxfName
1000
SCALE
1000
AcRTDxfName
1000
SCALE
1000
AcRTDxfName
1000
SCALE
1000
AcRTDxfName
1000
SCALE
1000
AcRTDxfName
1000
SCALE
1000
AcRTDxfName
1000
SCALE
1000
AcRTDxfName
1000
SCALE
  0
SCALE
  5
62B5D
102
{ACAD_REACTORS
330
6285A
102
}
330
6285A
100
AcDbScale
 70
     0
300
1:1_2_2
140
1.0
141
1.0
290
     0
1001
ACAD
1000
AcRTDxfName
1000
SCALE
1000
AcRTDxfName
1000
SCALE
1000
AcRTDxfName
1000
SCALE
1000
AcRTDxfName
1000
SCALE
1000
AcRTDxfName
1000
SCALE
1000
AcRTDxfName
1000
SCALE
1000
AcRTDxfName
1000
SCALE
  0
SCALE
  5
62B5E
102
{ACAD_REACTORS
330
6285A
102
}
330
6285A
100
AcDbScale
 70
     0
300
1:100_2_1
140
1.0
141
100.0
290
     0
1001
ACAD
1000
AcRTDxfName
1000
SCALE
1000
AcRTDxfName
1000
SCALE
1000
AcRTDxfName
1000
SCALE
1000
AcRTDxfName
1000
SCALE
1000
AcRTDxfName
1000
SCALE
1000
AcRTDxfName
1000
SCALE
1000
AcRTDxfName
1000
SCALE
  0
SCALE
  5
62B5F
102
{ACAD_REACTORS
330
6285A
102
}
330
6285A
100
AcDbScale
 70
     0
300
1:50_1_1
140
1.0
141
50.0
290
     0
1001
ACAD
1000
AcRTDxfName
1000
SCALE
1000
AcRTDxfName
1000
SCALE
1000
AcRTDxfName
1000
SCALE
1000
AcRTDxfName
1000
SCALE
1000
AcRTDxfName
1000
SCALE
1000
AcRTDxfName
1000
SCALE
1000
AcRTDxfName
1000
SCALE
1000
AcRTDxfName
1000
SCALE
1000
AcRTDxfName
1000
SCALE
1000
AcRTDxfName
1000
SCALE
  0
SCALE
  5
62B60
102
{ACAD_REACTORS
330
6285A
102
}
330
6285A
100
AcDbScale
 70
     0
300
1:10_5_7
140
1.0
141
0.01
290
     0
1001
ACAD
1000
AcRTDxfName
1000
SCALE
1000
AcRTDxfName
1000
SCALE
1000
AcRTDxfName
1000
SCALE
1000
AcRTDxfName
1000
SCALE
1000
AcRTDxfName
1000
SCALE
1000
AcRTDxfName
1000
SCALE
1000
AcRTDxfName
1000
SCALE
  0
SCALE
  5
62B10
102
{ACAD_REACTORS
330
6285A
102
}
330
6285A
100
AcDbScale
 70
     0
300
1:2_10
140
1.0
141
2.0
290
     0
1001
ACAD
1000
AcRTDxfName
1000
SCALE
1000
AcRTDxfName
1000
SCALE
1000
AcRTDxfName
1000
SCALE
1000
AcRTDxfName
1000
SCALE
1000
AcRTDxfName
1000
SCALE
1000
AcRTDxfName
1000
SCALE
1000
AcRTDxfName
1000
SCALE
  0
SCALE
  5
62B61
102
{ACAD_REACTORS
330
6285A
102
}
330
6285A
100
AcDbScale
 70
     0
300
1:50_5_6
140
1.0
141
50.0
290
     0
1001
ACAD
1000
AcRTDxfName
1000
SCALE
1000
AcRTDxfName
1000
SCALE
1000
AcRTDxfName
1000
SCALE
1000
AcRTDxfName
1000
SCALE
1000
AcRTDxfName
1000
SCALE
1000
AcRTDxfName
1000
SCALE
1000
AcRTDxfName
1000
SCALE
  0
SCALE
  5
62B62
102
{ACAD_REACTORS
330
6285A
102
}
330
6285A
100
AcDbScale
 70
     0
300
1:1_13
140
1.0
141
0.001
290
     0
1001
ACAD
1000
AcRTDxfName
1000
SCALE
1000
AcRTDxfName
1000
SCALE
1000
AcRTDxfName
1000
SCALE
1000
AcRTDxfName
1000
SCALE
1000
AcRTDxfName
1000
SCALE
1000
AcRTDxfName
1000
SCALE
1000
AcRTDxfName
1000
SCALE
  0
SCALE
  5
62A56
102
{ACAD_REACTORS
330
6285A
102
}
330
6285A
100
AcDbScale
 70
     0
300
1:50_5
140
1.0
141
50.0
290
     0
1001
ACAD
1000
AcRTDxfName
1000
SCALE
1000
AcRTDxfName
1000
SCALE
1000
AcRTDxfName
1000
SCALE
1000
AcRTDxfName
1000
SCALE
1000
AcRTDxfName
1000
SCALE
1000
AcRTDxfName
1000
SCALE
1000
AcRTDxfName
1000
SCALE
  0
SCALE
  5
62AC0
102
{ACAD_REACTORS
330
6285A
102
}
330
6285A
100
AcDbScale
 70
     0
300
1:5_5_2
140
1.0
141
0.005
290
     0
1001
ACAD
1000
AcRTDxfName
1000
SCALE
1000
AcRTDxfName
1000
SCALE
1000
AcRTDxfName
1000
SCALE
1000
AcRTDxfName
1000
SCALE
1000
AcRTDxfName
1000
SCALE
1000
AcRTDxfName
1000
SCALE
1000
AcRTDxfName
1000
SCALE
  0
SCALE
  5
62B63
102
{ACAD_REACTORS
330
6285A
102
}
330
6285A
100
AcDbScale
 70
     0
300
1:100_6_3
140
1.0
141
0.1
290
     0
1001
ACAD
1000
AcRTDxfName
1000
SCALE
1000
AcRTDxfName
1000
SCALE
1000
AcRTDxfName
1000
SCALE
1000
AcRTDxfName
1000
SCALE
1000
AcRTDxfName
1000
SCALE
1000
AcRTDxfName
1000
SCALE
1000
AcRTDxfName
1000
SCALE
  0
SCALE
  5
62A68
102
{ACAD_REACTORS
330
6285A
102
}
330
6285A
100
AcDbScale
 70
     0
300
1:20_8_1
140
1.0
141
0.02
290
     0
1001
ACAD
1000
AcRTDxfName
1000
SCALE
1000
AcRTDxfName
1000
SCALE
1000
AcRTDxfName
1000
SCALE
1000
AcRTDxfName
1000
SCALE
1000
AcRTDxfName
1000
SCALE
1000
AcRTDxfName
1000
SCALE
1000
AcRTDxfName
1000
SCALE
  0
SCALE
  5
62B64
102
{ACAD_REACTORS
330
6285A
102
}
330
6285A
100
AcDbScale
 70
     0
300
1:100_5
140
1.0
141
100.0
290
     0
1001
ACAD
1000
AcRTDxfName
1000
SCALE
1000
AcRTDxfName
1000
SCALE
1000
AcRTDxfName
1000
SCALE
1000
AcRTDxfName
1000
SCALE
1000
AcRTDxfName
1000
SCALE
1000
AcRTDxfName
1000
SCALE
1000
AcRTDxfName
1000
SCALE
  0
SCALE
  5
62B65
102
{ACAD_REACTORS
330
6285A
102
}
330
6285A
100
AcDbScale
 70
     0
300
1:100_11
140
1.0
141
100.0
290
     0
1001
ACAD
1000
AcRTDxfName
1000
SCALE
1000
AcRTDxfName
1000
SCALE
1000
AcRTDxfName
1000
SCALE
1000
AcRTDxfName
1000
SCALE
1000
AcRTDxfName
1000
SCALE
1000
AcRTDxfName
1000
SCALE
1000
AcRTDxfName
1000
SCALE
  0
SCALE
  5
62B66
102
{ACAD_REACTORS
330
6285A
102
}
330
6285A
100
AcDbScale
 70
     0
300
1:20_2_3
140
1.0
141
20.0
290
     0
1001
ACAD
1000
AcRTDxfName
1000
SCALE
1000
AcRTDxfName
1000
SCALE
1000
AcRTDxfName
1000
SCALE
1000
AcRTDxfName
1000
SCALE
1000
AcRTDxfName
1000
SCALE
1000
AcRTDxfName
1000
SCALE
1000
AcRTDxfName
1000
SCALE
  0
SCALE
  5
62B67
102
{ACAD_REACTORS
330
6285A
102
}
330
6285A
100
AcDbScale
 70
     0
300
1:1_4
140
1.0
141
1.0
290
     0
1001
ACAD
1000
AcRTDxfName
1000
SCALE
1000
AcRTDxfName
1000
SCALE
1000
AcRTDxfName
1000
SCALE
1000
AcRTDxfName
1000
SCALE
1000
AcRTDxfName
1000
SCALE
1000
AcRTDxfName
1000
SCALE
1000
AcRTDxfName
1000
SCALE
  0
SCALE
  5
62B11
102
{ACAD_REACTORS
330
6285A
102
}
330
6285A
100
AcDbScale
 70
     0
300
1:2_8_2
140
1.0
141
0.002
290
     0
1001
ACAD
1000
AcRTDxfName
1000
SCALE
1000
AcRTDxfName
1000
SCALE
1000
AcRTDxfName
1000
SCALE
1000
AcRTDxfName
1000
SCALE
1000
AcRTDxfName
1000
SCALE
1000
AcRTDxfName
1000
SCALE
1000
AcRTDxfName
1000
SCALE
  0
SCALE
  5
62B68
102
{ACAD_REACTORS
330
6285A
102
}
330
6285A
100
AcDbScale
 70
     0
300
1:2_5_2_1
140
1.0
141
2.0
290
     0
1001
ACAD
1000
AcRTDxfName
1000
SCALE
1000
AcRTDxfName
1000
SCALE
1000
AcRTDxfName
1000
SCALE
1000
AcRTDxfName
1000
SCALE
1000
AcRTDxfName
1000
SCALE
1000
AcRTDxfName
1000
SCALE
1000
AcRTDxfName
1000
SCALE
  0
SCALE
  5
62B69
102
{ACAD_REACTORS
330
6285A
102
}
330
6285A
100
AcDbScale
 70
     0
300
1:100_1_8
140
1.0
141
100.0
290
     0
1001
ACAD
1000
AcRTDxfName
1000
SCALE
1000
AcRTDxfName
1000
SCALE
1000
AcRTDxfName
1000
SCALE
1000
AcRTDxfName
1000
SCALE
1000
AcRTDxfName
1000
SCALE
1000
AcRTDxfName
1000
SCALE
1000
AcRTDxfName
1000
SCALE
  0
SCALE
  5
62B6A
102
{ACAD_REACTORS
330
6285A
102
}
330
6285A
100
AcDbScale
 70
     0
300
1:10_9
140
1.0
141
0.01
290
     0
1001
ACAD
1000
AcRTDxfName
1000
SCALE
1000
AcRTDxfName
1000
SCALE
1000
AcRTDxfName
1000
SCALE
1000
AcRTDxfName
1000
SCALE
1000
AcRTDxfName
1000
SCALE
1000
AcRTDxfName
1000
SCALE
1000
AcRTDxfName
1000
SCALE
  0
SCALE
  5
62B6B
102
{ACAD_REACTORS
330
6285A
102
}
330
6285A
100
AcDbScale
 70
     0
300
1:2_12
140
1.0
141
0.002
290
     0
1001
ACAD
1000
AcRTDxfName
1000
SCALE
1000
AcRTDxfName
1000
SCALE
1000
AcRTDxfName
1000
SCALE
1000
AcRTDxfName
1000
SCALE
1000
AcRTDxfName
1000
SCALE
1000
AcRTDxfName
1000
SCALE
1000
AcRTDxfName
1000
SCALE
  0
SCALE
  5
62AC1
102
{ACAD_REACTORS
330
6285A
102
}
330
6285A
100
AcDbScale
 70
     0
300
1:2_15
140
1.0
141
0.002
290
     0
1001
ACAD
1000
AcRTDxfName
1000
SCALE
1000
AcRTDxfName
1000
SCALE
1000
AcRTDxfName
1000
SCALE
1000
AcRTDxfName
1000
SCALE
1000
AcRTDxfName
1000
SCALE
1000
AcRTDxfName
1000
SCALE
1000
AcRTDxfName
1000
SCALE
  0
SCALE
  5
62B6C
102
{ACAD_REACTORS
330
6285A
102
}
330
6285A
100
AcDbScale
 70
     0
300
1:20_5_3
140
1.0
141
20.0
290
     0
1001
ACAD
1000
AcRTDxfName
1000
SCALE
1000
AcRTDxfName
1000
SCALE
1000
AcRTDxfName
1000
SCALE
1000
AcRTDxfName
1000
SCALE
1000
AcRTDxfName
1000
SCALE
1000
AcRTDxfName
1000
SCALE
1000
AcRTDxfName
1000
SCALE
  0
SCALE
  5
62B6D
102
{ACAD_REACTORS
330
6285A
102
}
330
6285A
100
AcDbScale
 70
     0
300
1:2_7_1_2
140
1.0
141
2.0
290
     0
1001
ACAD
1000
AcRTDxfName
1000
SCALE
1000
AcRTDxfName
1000
SCALE
1000
AcRTDxfName
1000
SCALE
1000
AcRTDxfName
1000
SCALE
1000
AcRTDxfName
1000
SCALE
1000
AcRTDxfName
1000
SCALE
1000
AcRTDxfName
1000
SCALE
  0
SCALE
  5
62A69
102
{ACAD_REACTORS
330
6285A
102
}
330
6285A
100
AcDbScale
 70
     0
300
1:50_5_5
140
1.0
141
50.0
290
     0
1001
ACAD
1000
AcRTDxfName
1000
SCALE
1000
AcRTDxfName
1000
SCALE
1000
AcRTDxfName
1000
SCALE
1000
AcRTDxfName
1000
SCALE
1000
AcRTDxfName
1000
SCALE
1000
AcRTDxfName
1000
SCALE
1000
AcRTDxfName
1000
SCALE
  0
SCALE
  5
62B6E
102
{ACAD_REACTORS
330
6285A
102
}
330
6285A
100
AcDbScale
 70
     0
300
1:5_5_6
140
1.0
141
0.005
290
     0
1001
ACAD
1000
AcRTDxfName
1000
SCALE
1000
AcRTDxfName
1000
SCALE
1000
AcRTDxfName
1000
SCALE
1000
AcRTDxfName
1000
SCALE
1000
AcRTDxfName
1000
SCALE
1000
AcRTDxfName
1000
SCALE
1000
AcRTDxfName
1000
SCALE
  0
SCALE
  5
62B6F
102
{ACAD_REACTORS
330
6285A
102
}
330
6285A
100
AcDbScale
 70
     0
300
1:50_9
140
1.0
141
0.05
290
     0
1001
ACAD
1000
AcRTDxfName
1000
SCALE
1000
AcRTDxfName
1000
SCALE
1000
AcRTDxfName
1000
SCALE
1000
AcRTDxfName
1000
SCALE
1000
AcRTDxfName
1000
SCALE
1000
AcRTDxfName
1000
SCALE
1000
AcRTDxfName
1000
SCALE
  0
SCALE
  5
62AB8
102
{ACAD_REACTORS
330
6285A
102
}
330
6285A
100
AcDbScale
 70
     0
300
1:10_6
140
1.0
141
10.0
290
     0
1001
ACAD
1000
AcRTDxfName
1000
SCALE
1000
AcRTDxfName
1000
SCALE
1000
AcRTDxfName
1000
SCALE
1000
AcRTDxfName
1000
SCALE
1000
AcRTDxfName
1000
SCALE
1000
AcRTDxfName
1000
SCALE
1000
AcRTDxfName
1000
SCALE
  0
SCALE
  5
62B70
102
{ACAD_REACTORS
330
6285A
102
}
330
6285A
100
AcDbScale
 70
     0
300
1:2_2_3
140
1.0
141
2.0
290
     0
1001
ACAD
1000
AcRTDxfName
1000
SCALE
1000
AcRTDxfName
1000
SCALE
1000
AcRTDxfName
1000
SCALE
1000
AcRTDxfName
1000
SCALE
1000
AcRTDxfName
1000
SCALE
1000
AcRTDxfName
1000
SCALE
1000
AcRTDxfName
1000
SCALE
  0
SCALE
  5
62B71
102
{ACAD_REACTORS
330
6285A
102
}
330
6285A
100
AcDbScale
 70
     0
300
1:50_7_2_2
140
1.0
141
50.0
290
     0
1001
ACAD
1000
AcRTDxfName
1000
SCALE
1000
AcRTDxfName
1000
SCALE
1000
AcRTDxfName
1000
SCALE
1000
AcRTDxfName
1000
SCALE
1000
AcRTDxfName
1000
SCALE
1000
AcRTDxfName
1000
SCALE
1000
AcRTDxfName
1000
SCALE
  0
SCALE
  5
62B72
102
{ACAD_REACTORS
330
6285A
102
}
330
6285A
100
AcDbScale
 70
     0
300
1:100_7_1_1
140
1.0
141
100.0
290
     0
1001
ACAD
1000
AcRTDxfName
1000
SCALE
1000
AcRTDxfName
1000
SCALE
1000
AcRTDxfName
1000
SCALE
1000
AcRTDxfName
1000
SCALE
1000
AcRTDxfName
1000
SCALE
1000
AcRTDxfName
1000
SCALE
1000
AcRTDxfName
1000
SCALE
  0
SCALE
  5
62B73
102
{ACAD_REACTORS
330
6285A
102
}
330
6285A
100
AcDbScale
 70
     0
300
1:2_6_1_1
140
1.0
141
2.0
290
     0
1001
ACAD
1000
AcRTDxfName
1000
SCALE
1000
AcRTDxfName
1000
SCALE
1000
AcRTDxfName
1000
SCALE
1000
AcRTDxfName
1000
SCALE
1000
AcRTDxfName
1000
SCALE
1000
AcRTDxfName
1000
SCALE
1000
AcRTDxfName
1000
SCALE
  0
SCALE
  5
62B74
102
{ACAD_REACTORS
330
6285A
102
}
330
6285A
100
AcDbScale
 70
     0
300
1:100_5_2
140
1.0
141
100.0
290
     0
1001
ACAD
1000
AcRTDxfName
1000
SCALE
1000
AcRTDxfName
1000
SCALE
1000
AcRTDxfName
1000
SCALE
1000
AcRTDxfName
1000
SCALE
1000
AcRTDxfName
1000
SCALE
1000
AcRTDxfName
1000
SCALE
1000
AcRTDxfName
1000
SCALE
  0
SCALE
  5
62AC2
102
{ACAD_REACTORS
330
6285A
102
}
330
6285A
100
AcDbScale
 70
     0
300
1:5_13
140
1.0
141
0.005
290
     0
1001
ACAD
1000
AcRTDxfName
1000
SCALE
1000
AcRTDxfName
1000
SCALE
1000
AcRTDxfName
1000
SCALE
1000
AcRTDxfName
1000
SCALE
1000
AcRTDxfName
1000
SCALE
1000
AcRTDxfName
1000
SCALE
1000
AcRTDxfName
1000
SCALE
  0
SCALE
  5
62B75
102
{ACAD_REACTORS
330
6285A
102
}
330
6285A
100
AcDbScale
 70
     0
300
1:20_2_2
140
1.0
141
20.0
290
     0
1001
ACAD
1000
AcRTDxfName
1000
SCALE
1000
AcRTDxfName
1000
SCALE
1000
AcRTDxfName
1000
SCALE
1000
AcRTDxfName
1000
SCALE
1000
AcRTDxfName
1000
SCALE
1000
AcRTDxfName
1000
SCALE
1000
AcRTDxfName
1000
SCALE
  0
SCALE
  5
62B76
102
{ACAD_REACTORS
330
6285A
102
}
330
6285A
100
AcDbScale
 70
     0
300
1:5_15
140
1.0
141
0.005
290
     0
1001
ACAD
1000
AcRTDxfName
1000
SCALE
1000
AcRTDxfName
1000
SCALE
1000
AcRTDxfName
1000
SCALE
1000
AcRTDxfName
1000
SCALE
1000
AcRTDxfName
1000
SCALE
1000
AcRTDxfName
1000
SCALE
1000
AcRTDxfName
1000
SCALE
  0
SCALE
  5
62B77
102
{ACAD_REACTORS
330
6285A
102
}
330
6285A
100
AcDbScale
 70
     0
300
1:100_6
140
1.0
141
100.0
290
     0
1001
ACAD
1000
AcRTDxfName
1000
SCALE
1000
AcRTDxfName
1000
SCALE
1000
AcRTDxfName
1000
SCALE
1000
AcRTDxfName
1000
SCALE
1000
AcRTDxfName
1000
SCALE
1000
AcRTDxfName
1000
SCALE
1000
AcRTDxfName
1000
SCALE
  0
SCALE
  5
62A4F
102
{ACAD_REACTORS
330
6285A
102
}
330
6285A
100
AcDbScale
 70
     0
300
1:1_6_3
140
1.0
141
0.001
290
     0
1001
ACAD
1000
AcRTDxfName
1000
SCALE
1000
AcRTDxfName
1000
SCALE
1000
AcRTDxfName
1000
SCALE
1000
AcRTDxfName
1000
SCALE
1000
AcRTDxfName
1000
SCALE
1000
AcRTDxfName
1000
SCALE
1000
AcRTDxfName
1000
SCALE
  0
SCALE
  5
62B12
102
{ACAD_REACTORS
330
6285A
102
}
330
6285A
100
AcDbScale
 70
     0
300
1:50_8_2
140
1.0
141
0.05
290
     0
1001
ACAD
1000
AcRTDxfName
1000
SCALE
1000
AcRTDxfName
1000
SCALE
1000
AcRTDxfName
1000
SCALE
1000
AcRTDxfName
1000
SCALE
1000
AcRTDxfName
1000
SCALE
1000
AcRTDxfName
1000
SCALE
1000
AcRTDxfName
1000
SCALE
  0
SCALE
  5
62A6A
102
{ACAD_REACTORS
330
6285A
102
}
330
6285A
100
AcDbScale
 70
     0
300
1:10_5_2
140
1.0
141
0.01
290
     0
1001
ACAD
1000
AcRTDxfName
1000
SCALE
1000
AcRTDxfName
1000
SCALE
1000
AcRTDxfName
1000
SCALE
1000
AcRTDxfName
1000
SCALE
1000
AcRTDxfName
1000
SCALE
1000
AcRTDxfName
1000
SCALE
1000
AcRTDxfName
1000
SCALE
  0
SCALE
  5
62B78
102
{ACAD_REACTORS
330
6285A
102
}
330
6285A
100
AcDbScale
 70
     0
300
1:100_13
140
1.0
141
0.1
290
     0
1001
ACAD
1000
AcRTDxfName
1000
SCALE
1000
AcRTDxfName
1000
SCALE
1000
AcRTDxfName
1000
SCALE
1000
AcRTDxfName
1000
SCALE
1000
AcRTDxfName
1000
SCALE
1000
AcRTDxfName
1000
SCALE
1000
AcRTDxfName
1000
SCALE
  0
SCALE
  5
62B79
102
{ACAD_REACTORS
330
6285A
102
}
330
6285A
100
AcDbScale
 70
     0
300
1:50_1_4
140
1.0
141
50.0
290
     0
1001
ACAD
1000
AcRTDxfName
1000
SCALE
1000
AcRTDxfName
1000
SCALE
1000
AcRTDxfName
1000
SCALE
1000
AcRTDxfName
1000
SCALE
1000
AcRTDxfName
1000
SCALE
1000
AcRTDxfName
1000
SCALE
1000
AcRTDxfName
1000
SCALE
  0
SCALE
  5
62B7A
102
{ACAD_REACTORS
330
6285A
102
}
330
6285A
100
AcDbScale
 70
     0
300
1:10_4
140
1.0
141
10.0
290
     0
1001
ACAD
1000
AcRTDxfName
1000
SCALE
1000
AcRTDxfName
1000
SCALE
1000
AcRTDxfName
1000
SCALE
1000
AcRTDxfName
1000
SCALE
1000
AcRTDxfName
1000
SCALE
1000
AcRTDxfName
1000
SCALE
1000
AcRTDxfName
1000
SCALE
  0
SCALE
  5
62B7B
102
{ACAD_REACTORS
330
6285A
102
}
330
6285A
100
AcDbScale
 70
     0
300
1:1_1_8
140
1.0
141
1.0
290
     0
1001
ACAD
1000
AcRTDxfName
1000
SCALE
1000
AcRTDxfName
1000
SCALE
1000
AcRTDxfName
1000
SCALE
1000
AcRTDxfName
1000
SCALE
1000
AcRTDxfName
1000
SCALE
1000
AcRTDxfName
1000
SCALE
1000
AcRTDxfName
1000
SCALE
  0
SCALE
  5
62B7C
102
{ACAD_REACTORS
330
6285A
102
}
330
6285A
100
AcDbScale
 70
     0
300
1:100_1_4
140
1.0
141
100.0
290
     0
1001
ACAD
1000
AcRTDxfName
1000
SCALE
1000
AcRTDxfName
1000
SCALE
1000
AcRTDxfName
1000
SCALE
1000
AcRTDxfName
1000
SCALE
1000
AcRTDxfName
1000
SCALE
1000
AcRTDxfName
1000
SCALE
1000
AcRTDxfName
1000
SCALE
  0
SCALE
  5
62AC3
102
{ACAD_REACTORS
330
6285A
102
}
330
6285A
100
AcDbScale
 70
     0
300
1:2_1_2
140
1.0
141
2.0
290
     0
1001
ACAD
1000
AcRTDxfName
1000
SCALE
1000
AcRTDxfName
1000
SCALE
1000
AcRTDxfName
1000
SCALE
1000
AcRTDxfName
1000
SCALE
1000
AcRTDxfName
1000
SCALE
1000
AcRTDxfName
1000
SCALE
1000
AcRTDxfName
1000
SCALE
1000
AcRTDxfName
1000
SCALE
1000
AcRTDxfName
1000
SCALE
1000
AcRTDxfName
1000
SCALE
  0
SCALE
  5
62B7D
102
{ACAD_REACTORS
330
6285A
102
}
330
6285A
100
AcDbScale
 70
     0
300
1:2_7
140
1.0
141
2.0
290
     0
1001
ACAD
1000
AcRTDxfName
1000
SCALE
1000
AcRTDxfName
1000
SCALE
1000
AcRTDxfName
1000
SCALE
1000
AcRTDxfName
1000
SCALE
1000
AcRTDxfName
1000
SCALE
1000
AcRTDxfName
1000
SCALE
1000
AcRTDxfName
1000
SCALE
  0
SCALE
  5
62B7E
102
{ACAD_REACTORS
330
6285A
102
}
330
6285A
100
AcDbScale
 70
     0
300
1:100_5_3
140
1.0
141
100.0
290
     0
1001
ACAD
1000
AcRTDxfName
1000
SCALE
1000
AcRTDxfName
1000
SCALE
1000
AcRTDxfName
1000
SCALE
1000
AcRTDxfName
1000
SCALE
1000
AcRTDxfName
1000
SCALE
1000
AcRTDxfName
1000
SCALE
1000
AcRTDxfName
1000
SCALE
  0
SCALE
  5
62B7F
102
{ACAD_REACTORS
330
6285A
102
}
330
6285A
100
AcDbScale
 70
     0
300
1:20_1_7
140
1.0
141
20.0
290
     0
1001
ACAD
1000
AcRTDxfName
1000
SCALE
1000
AcRTDxfName
1000
SCALE
1000
AcRTDxfName
1000
SCALE
1000
AcRTDxfName
1000
SCALE
1000
AcRTDxfName
1000
SCALE
1000
AcRTDxfName
1000
SCALE
1000
AcRTDxfName
1000
SCALE
  0
SCALE
  5
62B13
102
{ACAD_REACTORS
330
6285A
102
}
330
6285A
100
AcDbScale
 70
     0
300
1:10_16
140
1.0
141
0.01
290
     0
1001
ACAD
1000
AcRTDxfName
1000
SCALE
1000
AcRTDxfName
1000
SCALE
1000
AcRTDxfName
1000
SCALE
1000
AcRTDxfName
1000
SCALE
1000
AcRTDxfName
1000
SCALE
1000
AcRTDxfName
1000
SCALE
1000
AcRTDxfName
1000
SCALE
  0
SCALE
  5
62B80
102
{ACAD_REACTORS
330
6285A
102
}
330
6285A
100
AcDbScale
 70
     0
300
1:2_5
140
1.0
141
2.0
290
     0
1001
ACAD
1000
AcRTDxfName
1000
SCALE
1000
AcRTDxfName
1000
SCALE
1000
AcRTDxfName
1000
SCALE
1000
AcRTDxfName
1000
SCALE
1000
AcRTDxfName
1000
SCALE
1000
AcRTDxfName
1000
SCALE
1000
AcRTDxfName
1000
SCALE
  0
SCALE
  5
62B81
102
{ACAD_REACTORS
330
6285A
102
}
330
6285A
100
AcDbScale
 70
     0
300
1:10_5_4
140
1.0
141
10.0
290
     0
1001
ACAD
1000
AcRTDxfName
1000
SCALE
1000
AcRTDxfName
1000
SCALE
1000
AcRTDxfName
1000
SCALE
1000
AcRTDxfName
1000
SCALE
1000
AcRTDxfName
1000
SCALE
1000
AcRTDxfName
1000
SCALE
1000
AcRTDxfName
1000
SCALE
  0
SCALE
  5
62A6B
102
{ACAD_REACTORS
330
6285A
102
}
330
6285A
100
AcDbScale
 70
     0
300
1:1_8
140
1.0
141
1.0
290
     0
1001
ACAD
1000
AcRTDxfName
1000
SCALE
1000
AcRTDxfName
1000
SCALE
1000
AcRTDxfName
1000
SCALE
1000
AcRTDxfName
1000
SCALE
1000
AcRTDxfName
1000
SCALE
1000
AcRTDxfName
1000
SCALE
1000
AcRTDxfName
1000
SCALE
  0
SCALE
  5
62B82
102
{ACAD_REACTORS
330
6285A
102
}
330
6285A
100
AcDbScale
 70
     0
300
1:1_1_2
140
1.0
141
1.0
290
     0
1001
ACAD
1000
AcRTDxfName
1000
SCALE
1000
AcRTDxfName
1000
SCALE
1000
AcRTDxfName
1000
SCALE
1000
AcRTDxfName
1000
SCALE
1000
AcRTDxfName
1000
SCALE
1000
AcRTDxfName
1000
SCALE
1000
AcRTDxfName
1000
SCALE
1000
AcRTDxfName
1000
SCALE
1000
AcRTDxfName
1000
SCALE
1000
AcRTDxfName
1000
SCALE
  0
SCALE
  5
62B83
102
{ACAD_REACTORS
330
6285A
102
}
330
6285A
100
AcDbScale
 70
     0
300
1:10_1
140
1.0
141
0.01
290
     0
1001
ACAD
1000
AcRTDxfName
1000
SCALE
1000
AcRTDxfName
1000
SCALE
1000
AcRTDxfName
1000
SCALE
1000
AcRTDxfName
1000
SCALE
1000
AcRTDxfName
1000
SCALE
1000
AcRTDxfName
1000
SCALE
1000
AcRTDxfName
1000
SCALE
1000
AcRTDxfName
1000
SCALE
1000
AcRTDxfName
1000
SCALE
1000
AcRTDxfName
1000
SCALE
  0
SCALE
  5
62B84
102
{ACAD_REACTORS
330
6285A
102
}
330
6285A
100
AcDbScale
 70
     0
300
1:10_14
140
1.0
141
0.01
290
     0
1001
ACAD
1000
AcRTDxfName
1000
SCALE
1000
AcRTDxfName
1000
SCALE
1000
AcRTDxfName
1000
SCALE
1000
AcRTDxfName
1000
SCALE
1000
AcRTDxfName
1000
SCALE
1000
AcRTDxfName
1000
SCALE
1000
AcRTDxfName
1000
SCALE
  0
SCALE
  5
62B85
102
{ACAD_REACTORS
330
6285A
102
}
330
6285A
100
AcDbScale
 70
     0
300
1:10_1_8
140
1.0
141
10.0
290
     0
1001
ACAD
1000
AcRTDxfName
1000
SCALE
1000
AcRTDxfName
1000
SCALE
1000
AcRTDxfName
1000
SCALE
1000
AcRTDxfName
1000
SCALE
1000
AcRTDxfName
1000
SCALE
1000
AcRTDxfName
1000
SCALE
1000
AcRTDxfName
1000
SCALE
  0
SCALE
  5
62A58
102
{ACAD_REACTORS
330
6285A
102
}
330
6285A
100
AcDbScale
 70
     0
300
1:10_1_4
140
1.0
141
10.0
290
     0
1001
ACAD
1000
AcRTDxfName
1000
SCALE
1000
AcRTDxfName
1000
SCALE
1000
AcRTDxfName
1000
SCALE
1000
AcRTDxfName
1000
SCALE
1000
AcRTDxfName
1000
SCALE
1000
AcRTDxfName
1000
SCALE
1000
AcRTDxfName
1000
SCALE
  0
SCALE
  5
62B86
102
{ACAD_REACTORS
330
6285A
102
}
330
6285A
100
AcDbScale
 70
     0
300
1:50_7
140
1.0
141
50.0
290
     0
1001
ACAD
1000
AcRTDxfName
1000
SCALE
1000
AcRTDxfName
1000
SCALE
1000
AcRTDxfName
1000
SCALE
1000
AcRTDxfName
1000
SCALE
1000
AcRTDxfName
1000
SCALE
1000
AcRTDxfName
1000
SCALE
1000
AcRTDxfName
1000
SCALE
  0
SCALE
  5
62B87
102
{ACAD_REACTORS
330
6285A
102
}
330
6285A
100
AcDbScale
 70
     0
300
1:2_2_1
140
1.0
141
2.0
290
     0
1001
ACAD
1000
AcRTDxfName
1000
SCALE
1000
AcRTDxfName
1000
SCALE
1000
AcRTDxfName
1000
SCALE
1000
AcRTDxfName
1000
SCALE
1000
AcRTDxfName
1000
SCALE
1000
AcRTDxfName
1000
SCALE
1000
AcRTDxfName
1000
SCALE
  0
SCALE
  5
62A4E
102
{ACAD_REACTORS
330
6285A
102
}
330
6285A
100
AcDbScale
 70
     0
300
1:50_7_2
140
1.0
141
0.05
290
     0
1001
ACAD
1000
AcRTDxfName
1000
SCALE
1000
AcRTDxfName
1000
SCALE
1000
AcRTDxfName
1000
SCALE
1000
AcRTDxfName
1000
SCALE
1000
AcRTDxfName
1000
SCALE
1000
AcRTDxfName
1000
SCALE
1000
AcRTDxfName
1000
SCALE
  0
SCALE
  5
62B88
102
{ACAD_REACTORS
330
6285A
102
}
330
6285A
100
AcDbScale
 70
     0
300
1:10_2_2
140
1.0
141
10.0
290
     0
1001
ACAD
1000
AcRTDxfName
1000
SCALE
1000
AcRTDxfName
1000
SCALE
1000
AcRTDxfName
1000
SCALE
1000
AcRTDxfName
1000
SCALE
1000
AcRTDxfName
1000
SCALE
1000
AcRTDxfName
1000
SCALE
1000
AcRTDxfName
1000
SCALE
  0
SCALE
  5
62B89
102
{ACAD_REACTORS
330
6285A
102
}
330
6285A
100
AcDbScale
 70
     0
300
1:5_14
140
1.0
141
0.005
290
     0
1001
ACAD
1000
AcRTDxfName
1000
SCALE
1000
AcRTDxfName
1000
SCALE
1000
AcRTDxfName
1000
SCALE
1000
AcRTDxfName
1000
SCALE
1000
AcRTDxfName
1000
SCALE
1000
AcRTDxfName
1000
SCALE
1000
AcRTDxfName
1000
SCALE
  0
SCALE
  5
62B8A
102
{ACAD_REACTORS
330
6285A
102
}
330
6285A
100
AcDbScale
 70
     0
300
1:20_1_2
140
1.0
141
20.0
290
     0
1001
ACAD
1000
AcRTDxfName
1000
SCALE
1000
AcRTDxfName
1000
SCALE
1000
AcRTDxfName
1000
SCALE
1000
AcRTDxfName
1000
SCALE
1000
AcRTDxfName
1000
SCALE
1000
AcRTDxfName
1000
SCALE
1000
AcRTDxfName
1000
SCALE
1000
AcRTDxfName
1000
SCALE
1000
AcRTDxfName
1000
SCALE
1000
AcRTDxfName
1000
SCALE
  0
SCALE
  5
62B8B
102
{ACAD_REACTORS
330
6285A
102
}
330
6285A
100
AcDbScale
 70
     0
300
1:2_5_6
140
1.0
141
0.002
290
     0
1001
ACAD
1000
AcRTDxfName
1000
SCALE
1000
AcRTDxfName
1000
SCALE
1000
AcRTDxfName
1000
SCALE
1000
AcRTDxfName
1000
SCALE
1000
AcRTDxfName
1000
SCALE
1000
AcRTDxfName
1000
SCALE
1000
AcRTDxfName
1000
SCALE
  0
SCALE
  5
62A6C
102
{ACAD_REACTORS
330
6285A
102
}
330
6285A
100
AcDbScale
 70
     0
300
1:20_12
140
1.0
141
0.02
290
     0
1001
ACAD
1000
AcRTDxfName
1000
SCALE
1000
AcRTDxfName
1000
SCALE
1000
AcRTDxfName
1000
SCALE
1000
AcRTDxfName
1000
SCALE
1000
AcRTDxfName
1000
SCALE
1000
AcRTDxfName
1000
SCALE
1000
AcRTDxfName
1000
SCALE
  0
SCALE
  5
62B8C
102
{ACAD_REACTORS
330
6285A
102
}
330
6285A
100
AcDbScale
 70
     0
300
1:5_6_4
140
1.0
141
0.005
290
     0
1001
ACAD
1000
AcRTDxfName
1000
SCALE
1000
AcRTDxfName
1000
SCALE
1000
AcRTDxfName
1000
SCALE
1000
AcRTDxfName
1000
SCALE
1000
AcRTDxfName
1000
SCALE
1000
AcRTDxfName
1000
SCALE
1000
AcRTDxfName
1000
SCALE
  0
SCALE
  5
68A76
102
{ACAD_REACTORS
330
6285A
102
}
330
6285A
100
AcDbScale
 70
     0
300
1:500
140
1.0
141
500.0
290
     0
  0
SCALE
  5
68A77
102
{ACAD_REACTORS
330
6285A
102
}
330
6285A
100
AcDbScale
 70
     0
300
1:1000_1
140
1.0
141
1000.0
290
     0
  0
SCALE
  5
62AC4
102
{ACAD_REACTORS
330
6285A
102
}
330
6285A
100
AcDbScale
 70
     0
300
1:1_8_2
140
1.0
141
0.001
290
     0
1001
ACAD
1000
AcRTDxfName
1000
SCALE
1000
AcRTDxfName
1000
SCALE
1000
AcRTDxfName
1000
SCALE
1000
AcRTDxfName
1000
SCALE
1000
AcRTDxfName
1000
SCALE
1000
AcRTDxfName
1000
SCALE
1000
AcRTDxfName
1000
SCALE
  0
SCALE
  5
68A78
102
{ACAD_REACTORS
330
6285A
102
}
330
6285A
100
AcDbScale
 70
     0
300
1:25
140
1.0
141
25.0
290
     0
  0
SCALE
  5
62A60
102
{ACAD_REACTORS
330
6285A
102
}
330
6285A
100
AcDbScale
 70
     0
300
1:50_2_3
140
1.0
141
50.0
290
     0
1001
ACAD
1000
AcRTDxfName
1000
SCALE
1000
AcRTDxfName
1000
SCALE
1000
AcRTDxfName
1000
SCALE
1000
AcRTDxfName
1000
SCALE
1000
AcRTDxfName
1000
SCALE
1000
AcRTDxfName
1000
SCALE
1000
AcRTDxfName
1000
SCALE
  0
SCALE
  5
68A79
102
{ACAD_REACTORS
330
6285A
102
}
330
6285A
100
AcDbScale
 70
     0
300
1:300
140
1.0
141
300.0
290
     0
  0
SCALE
  5
68A7A
102
{ACAD_REACTORS
330
6285A
102
}
330
6285A
100
AcDbScale
 70
     0
300
1:60
140
1.0
141
60.0
290
     0
  0
SCALE
  5
68A7B
102
{ACAD_REACTORS
330
6285A
102
}
330
6285A
100
AcDbScale
 70
     0
300
1:80
140
1.0
141
80.0
290
     0
  0
SCALE
  5
68A7C
102
{ACAD_REACTORS
330
6285A
102
}
330
6285A
100
AcDbScale
 70
     0
300
1:200
140
1.0
141
200.0
290
     0
  0
SCALE
  5
68A7D
102
{ACAD_REACTORS
330
6285A
102
}
330
6285A
100
AcDbScale
 70
     0
300
1:400
140
1.0
141
400.0
290
     0
  0
SCALE
  5
68A7E
102
{ACAD_REACTORS
330
6285A
102
}
330
6285A
100
AcDbScale
 70
     0
300
1:250
140
1.0
141
250.0
290
     0
  0
SCALE
  5
62A6D
102
{ACAD_REACTORS
330
6285A
102
}
330
6285A
100
AcDbScale
 70
     0
300
1:2_1_1
140
1.0
141
2.0
290
     0
1001
ACAD
1000
AcRTDxfName
1000
SCALE
1000
AcRTDxfName
1000
SCALE
1000
AcRTDxfName
1000
SCALE
1000
AcRTDxfName
1000
SCALE
1000
AcRTDxfName
1000
SCALE
1000
AcRTDxfName
1000
SCALE
1000
AcRTDxfName
1000
SCALE
1000
AcRTDxfName
1000
SCALE
1000
AcRTDxfName
1000
SCALE
1000
AcRTDxfName
1000
SCALE
  0
SCALE
  5
62A6E
102
{ACAD_REACTORS
330
6285A
102
}
330
6285A
100
AcDbScale
 70
     0
300
1:20_5
140
1.0
141
20.0
290
     0
1001
ACAD
1000
AcRTDxfName
1000
SCALE
1000
AcRTDxfName
1000
SCALE
1000
AcRTDxfName
1000
SCALE
1000
AcRTDxfName
1000
SCALE
1000
AcRTDxfName
1000
SCALE
1000
AcRTDxfName
1000
SCALE
1000
AcRTDxfName
1000
SCALE
  0
SCALE
  5
62A6F
102
{ACAD_REACTORS
330
6285A
102
}
330
6285A
100
AcDbScale
 70
     0
300
1:2_13
140
1.0
141
0.002
290
     0
1001
ACAD
1000
AcRTDxfName
1000
SCALE
1000
AcRTDxfName
1000
SCALE
1000
AcRTDxfName
1000
SCALE
1000
AcRTDxfName
1000
SCALE
1000
AcRTDxfName
1000
SCALE
1000
AcRTDxfName
1000
SCALE
1000
AcRTDxfName
1000
SCALE
  0
SCALE
  5
62AC5
102
{ACAD_REACTORS
330
6285A
102
}
330
6285A
100
AcDbScale
 70
     0
300
1:5_4
140
1.0
141
5.0
290
     0
1001
ACAD
1000
AcRTDxfName
1000
SCALE
1000
AcRTDxfName
1000
SCALE
1000
AcRTDxfName
1000
SCALE
1000
AcRTDxfName
1000
SCALE
1000
AcRTDxfName
1000
SCALE
1000
AcRTDxfName
1000
SCALE
1000
AcRTDxfName
1000
SCALE
  0
SCALE
  5
62B14
102
{ACAD_REACTORS
330
6285A
102
}
330
6285A
100
AcDbScale
 70
     0
300
1:5_7_1_1
140
1.0
141
5.0
290
     0
1001
ACAD
1000
AcRTDxfName
1000
SCALE
1000
AcRTDxfName
1000
SCALE
1000
AcRTDxfName
1000
SCALE
1000
AcRTDxfName
1000
SCALE
1000
AcRTDxfName
1000
SCALE
1000
AcRTDxfName
1000
SCALE
1000
AcRTDxfName
1000
SCALE
  0
SCALE
  5
62A70
102
{ACAD_REACTORS
330
6285A
102
}
330
6285A
100
AcDbScale
 70
     0
300
1:5_9
140
1.0
141
0.005
290
     0
1001
ACAD
1000
AcRTDxfName
1000
SCALE
1000
AcRTDxfName
1000
SCALE
1000
AcRTDxfName
1000
SCALE
1000
AcRTDxfName
1000
SCALE
1000
AcRTDxfName
1000
SCALE
1000
AcRTDxfName
1000
SCALE
1000
AcRTDxfName
1000
SCALE
  0
SCALE
  5
62A71
102
{ACAD_REACTORS
330
6285A
102
}
330
6285A
100
AcDbScale
 70
     0
300
1:100_7_3
140
1.0
141
0.1
290
     0
1001
ACAD
1000
AcRTDxfName
1000
SCALE
1000
AcRTDxfName
1000
SCALE
1000
AcRTDxfName
1000
SCALE
1000
AcRTDxfName
1000
SCALE
1000
AcRTDxfName
1000
SCALE
1000
AcRTDxfName
1000
SCALE
1000
AcRTDxfName
1000
SCALE
  0
SCALE
  5
62A72
102
{ACAD_REACTORS
330
6285A
102
}
330
6285A
100
AcDbScale
 70
     0
300
1:20_1_3
140
1.0
141
20.0
290
     0
1001
ACAD
1000
AcRTDxfName
1000
SCALE
1000
AcRTDxfName
1000
SCALE
1000
AcRTDxfName
1000
SCALE
1000
AcRTDxfName
1000
SCALE
1000
AcRTDxfName
1000
SCALE
1000
AcRTDxfName
1000
SCALE
1000
AcRTDxfName
1000
SCALE
  0
SCALE
  5
62A73
102
{ACAD_REACTORS
330
6285A
102
}
330
6285A
100
AcDbScale
 70
     0
300
1:10_7_1_2
140
1.0
141
10.0
290
     0
1001
ACAD
1000
AcRTDxfName
1000
SCALE
1000
AcRTDxfName
1000
SCALE
1000
AcRTDxfName
1000
SCALE
1000
AcRTDxfName
1000
SCALE
1000
AcRTDxfName
1000
SCALE
1000
AcRTDxfName
1000
SCALE
1000
AcRTDxfName
1000
SCALE
  0
SCALE
  5
62A50
102
{ACAD_REACTORS
330
6285A
102
}
330
6285A
100
AcDbScale
 70
     0
300
1:10_1_5
140
1.0
141
10.0
290
     0
1001
ACAD
1000
AcRTDxfName
1000
SCALE
1000
AcRTDxfName
1000
SCALE
1000
AcRTDxfName
1000
SCALE
1000
AcRTDxfName
1000
SCALE
1000
AcRTDxfName
1000
SCALE
1000
AcRTDxfName
1000
SCALE
1000
AcRTDxfName
1000
SCALE
  0
SCALE
  5
62A74
102
{ACAD_REACTORS
330
6285A
102
}
330
6285A
100
AcDbScale
 70
     0
300
1:100_2
140
1.0
141
0.1
290
     0
1001
ACAD
1000
AcRTDxfName
1000
SCALE
1000
AcRTDxfName
1000
SCALE
1000
AcRTDxfName
1000
SCALE
1000
AcRTDxfName
1000
SCALE
1000
AcRTDxfName
1000
SCALE
1000
AcRTDxfName
1000
SCALE
1000
AcRTDxfName
1000
SCALE
1000
AcRTDxfName
1000
SCALE
1000
AcRTDxfName
1000
SCALE
1000
AcRTDxfName
1000
SCALE
  0
SCALE
  5
62A75
102
{ACAD_REACTORS
330
6285A
102
}
330
6285A
100
AcDbScale
 70
     0
300
1:50_1_6
140
1.0
141
50.0
290
     0
1001
ACAD
1000
AcRTDxfName
1000
SCALE
1000
AcRTDxfName
1000
SCALE
1000
AcRTDxfName
1000
SCALE
1000
AcRTDxfName
1000
SCALE
1000
AcRTDxfName
1000
SCALE
1000
AcRTDxfName
1000
SCALE
1000
AcRTDxfName
1000
SCALE
  0
SCALE
  5
62A76
102
{ACAD_REACTORS
330
6285A
102
}
330
6285A
100
AcDbScale
 70
     0
300
1:20_5_1
140
1.0
141
20.0
290
     0
1001
ACAD
1000
AcRTDxfName
1000
SCALE
1000
AcRTDxfName
1000
SCALE
1000
AcRTDxfName
1000
SCALE
1000
AcRTDxfName
1000
SCALE
1000
AcRTDxfName
1000
SCALE
1000
AcRTDxfName
1000
SCALE
1000
AcRTDxfName
1000
SCALE
  0
SCALE
  5
62A77
102
{ACAD_REACTORS
330
6285A
102
}
330
6285A
100
AcDbScale
 70
     0
300
1:20_5_2
140
1.0
141
0.02
290
     0
1001
ACAD
1000
AcRTDxfName
1000
SCALE
1000
AcRTDxfName
1000
SCALE
1000
AcRTDxfName
1000
SCALE
1000
AcRTDxfName
1000
SCALE
1000
AcRTDxfName
1000
SCALE
1000
AcRTDxfName
1000
SCALE
1000
AcRTDxfName
1000
SCALE
  0
SCALE
  5
62A78
102
{ACAD_REACTORS
330
6285A
102
}
330
6285A
100
AcDbScale
 70
     0
300
1:1_1
140
1.0
141
0.001
290
     0
1001
ACAD
1000
AcRTDxfName
1000
SCALE
1000
AcRTDxfName
1000
SCALE
1000
AcRTDxfName
1000
SCALE
1000
AcRTDxfName
1000
SCALE
1000
AcRTDxfName
1000
SCALE
1000
AcRTDxfName
1000
SCALE
1000
AcRTDxfName
1000
SCALE
1000
AcRTDxfName
1000
SCALE
1000
AcRTDxfName
1000
SCALE
1000
AcRTDxfName
1000
SCALE
  0
SCALE
  5
62B15
102
{ACAD_REACTORS
330
6285A
102
}
330
6285A
100
AcDbScale
 70
     0
300
1:50_1_7
140
1.0
141
50.0
290
     0
1001
ACAD
1000
AcRTDxfName
1000
SCALE
1000
AcRTDxfName
1000
SCALE
1000
AcRTDxfName
1000
SCALE
1000
AcRTDxfName
1000
SCALE
1000
AcRTDxfName
1000
SCALE
1000
AcRTDxfName
1000
SCALE
1000
AcRTDxfName
1000
SCALE
  0
SCALE
  5
62AC6
102
{ACAD_REACTORS
330
6285A
102
}
330
6285A
100
AcDbScale
 70
     0
300
1:10_8_2
140
1.0
141
0.01
290
     0
1001
ACAD
1000
AcRTDxfName
1000
SCALE
1000
AcRTDxfName
1000
SCALE
1000
AcRTDxfName
1000
SCALE
1000
AcRTDxfName
1000
SCALE
1000
AcRTDxfName
1000
SCALE
1000
AcRTDxfName
1000
SCALE
1000
AcRTDxfName
1000
SCALE
  0
SCALE
  5
62A79
102
{ACAD_REACTORS
330
6285A
102
}
330
6285A
100
AcDbScale
 70
     0
300
1:2_1_4
140
1.0
141
2.0
290
     0
1001
ACAD
1000
AcRTDxfName
1000
SCALE
1000
AcRTDxfName
1000
SCALE
1000
AcRTDxfName
1000
SCALE
1000
AcRTDxfName
1000
SCALE
1000
AcRTDxfName
1000
SCALE
1000
AcRTDxfName
1000
SCALE
1000
AcRTDxfName
1000
SCALE
  0
SCALE
  5
62A7A
102
{ACAD_REACTORS
330
6285A
102
}
330
6285A
100
AcDbScale
 70
     0
300
1:100_1
140
1.0
141
0.1
290
     0
1001
ACAD
1000
AcRTDxfName
1000
SCALE
1000
AcRTDxfName
1000
SCALE
1000
AcRTDxfName
1000
SCALE
1000
AcRTDxfName
1000
SCALE
1000
AcRTDxfName
1000
SCALE
1000
AcRTDxfName
1000
SCALE
1000
AcRTDxfName
1000
SCALE
1000
AcRTDxfName
1000
SCALE
1000
AcRTDxfName
1000
SCALE
1000
AcRTDxfName
1000
SCALE
  0
SCALE
  5
62A7B
102
{ACAD_REACTORS
330
6285A
102
}
330
6285A
100
AcDbScale
 70
     0
300
1:100_6_2
140
1.0
141
0.1
290
     0
1001
ACAD
1000
AcRTDxfName
1000
SCALE
1000
AcRTDxfName
1000
SCALE
1000
AcRTDxfName
1000
SCALE
1000
AcRTDxfName
1000
SCALE
1000
AcRTDxfName
1000
SCALE
1000
AcRTDxfName
1000
SCALE
1000
AcRTDxfName
1000
SCALE
  0
SCALE
  5
62A7C
102
{ACAD_REACTORS
330
6285A
102
}
330
6285A
100
AcDbScale
 70
     0
300
1:2_1_7
140
1.0
141
2.0
290
     0
1001
ACAD
1000
AcRTDxfName
1000
SCALE
1000
AcRTDxfName
1000
SCALE
1000
AcRTDxfName
1000
SCALE
1000
AcRTDxfName
1000
SCALE
1000
AcRTDxfName
1000
SCALE
1000
AcRTDxfName
1000
SCALE
1000
AcRTDxfName
1000
SCALE
  0
SCALE
  5
62A7D
102
{ACAD_REACTORS
330
6285A
102
}
330
6285A
100
AcDbScale
 70
     0
300
1:100_1_6
140
1.0
141
100.0
290
     0
1001
ACAD
1000
AcRTDxfName
1000
SCALE
1000
AcRTDxfName
1000
SCALE
1000
AcRTDxfName
1000
SCALE
1000
AcRTDxfName
1000
SCALE
1000
AcRTDxfName
1000
SCALE
1000
AcRTDxfName
1000
SCALE
1000
AcRTDxfName
1000
SCALE
  0
SCALE
  5
62A51
102
{ACAD_REACTORS
330
6285A
102
}
330
6285A
100
AcDbScale
 70
     0
300
1:10_1_1
140
1.0
141
10.0
290
     0
1001
ACAD
1000
AcRTDxfName
1000
SCALE
1000
AcRTDxfName
1000
SCALE
1000
AcRTDxfName
1000
SCALE
1000
AcRTDxfName
1000
SCALE
1000
AcRTDxfName
1000
SCALE
1000
AcRTDxfName
1000
SCALE
1000
AcRTDxfName
1000
SCALE
1000
AcRTDxfName
1000
SCALE
1000
AcRTDxfName
1000
SCALE
1000
AcRTDxfName
1000
SCALE
  0
SCALE
  5
62A7E
102
{ACAD_REACTORS
330
6285A
102
}
330
6285A
100
AcDbScale
 70
     0
300
1:10_7
140
1.0
141
10.0
290
     0
1001
ACAD
1000
AcRTDxfName
1000
SCALE
1000
AcRTDxfName
1000
SCALE
1000
AcRTDxfName
1000
SCALE
1000
AcRTDxfName
1000
SCALE
1000
AcRTDxfName
1000
SCALE
1000
AcRTDxfName
1000
SCALE
1000
AcRTDxfName
1000
SCALE
  0
SCALE
  5
62A7F
102
{ACAD_REACTORS
330
6285A
102
}
330
6285A
100
AcDbScale
 70
     0
300
1:1_2_3
140
1.0
141
1.0
290
     0
1001
ACAD
1000
AcRTDxfName
1000
SCALE
1000
AcRTDxfName
1000
SCALE
1000
AcRTDxfName
1000
SCALE
1000
AcRTDxfName
1000
SCALE
1000
AcRTDxfName
1000
SCALE
1000
AcRTDxfName
1000
SCALE
1000
AcRTDxfName
1000
SCALE
  0
SCALE
  5
62A80
102
{ACAD_REACTORS
330
6285A
102
}
330
6285A
100
AcDbScale
 70
     0
300
1:1_5
140
1.0
141
1.0
290
     0
1001
ACAD
1000
AcRTDxfName
1000
SCALE
1000
AcRTDxfName
1000
SCALE
1000
AcRTDxfName
1000
SCALE
1000
AcRTDxfName
1000
SCALE
1000
AcRTDxfName
1000
SCALE
1000
AcRTDxfName
1000
SCALE
1000
AcRTDxfName
1000
SCALE
  0
SCALE
  5
62AB7
102
{ACAD_REACTORS
330
6285A
102
}
330
6285A
100
AcDbScale
 70
     0
300
1:5_8_1
140
1.0
141
0.005
290
     0
1001
ACAD
1000
AcRTDxfName
1000
SCALE
1000
AcRTDxfName
1000
SCALE
1000
AcRTDxfName
1000
SCALE
1000
AcRTDxfName
1000
SCALE
1000
AcRTDxfName
1000
SCALE
1000
AcRTDxfName
1000
SCALE
1000
AcRTDxfName
1000
SCALE
  0
SCALE
  5
62B16
102
{ACAD_REACTORS
330
6285A
102
}
330
6285A
100
AcDbScale
 70
     0
300
1:20_2
140
1.0
141
0.02
290
     0
1001
ACAD
1000
AcRTDxfName
1000
SCALE
1000
AcRTDxfName
1000
SCALE
1000
AcRTDxfName
1000
SCALE
1000
AcRTDxfName
1000
SCALE
1000
AcRTDxfName
1000
SCALE
1000
AcRTDxfName
1000
SCALE
1000
AcRTDxfName
1000
SCALE
1000
AcRTDxfName
1000
SCALE
1000
AcRTDxfName
1000
SCALE
1000
AcRTDxfName
1000
SCALE
  0
SCALE
  5
62A81
102
{ACAD_REACTORS
330
6285A
102
}
330
6285A
100
AcDbScale
 70
     0
300
1:10_6_2
140
1.0
141
0.01
290
     0
1001
ACAD
1000
AcRTDxfName
1000
SCALE
1000
AcRTDxfName
1000
SCALE
1000
AcRTDxfName
1000
SCALE
1000
AcRTDxfName
1000
SCALE
1000
AcRTDxfName
1000
SCALE
1000
AcRTDxfName
1000
SCALE
1000
AcRTDxfName
1000
SCALE
  0
SCALE
  5
62AC7
102
{ACAD_REACTORS
330
6285A
102
}
330
6285A
100
AcDbScale
 70
     0
300
1:20_8_2
140
1.0
141
0.02
290
     0
1001
ACAD
1000
AcRTDxfName
1000
SCALE
1000
AcRTDxfName
1000
SCALE
1000
AcRTDxfName
1000
SCALE
1000
AcRTDxfName
1000
SCALE
1000
AcRTDxfName
1000
SCALE
1000
AcRTDxfName
1000
SCALE
1000
AcRTDxfName
1000
SCALE
  0
SCALE
  5
62A82
102
{ACAD_REACTORS
330
6285A
102
}
330
6285A
100
AcDbScale
 70
     0
300
1:20_2_1
140
1.0
141
20.0
290
     0
1001
ACAD
1000
AcRTDxfName
1000
SCALE
1000
AcRTDxfName
1000
SCALE
1000
AcRTDxfName
1000
SCALE
1000
AcRTDxfName
1000
SCALE
1000
AcRTDxfName
1000
SCALE
1000
AcRTDxfName
1000
SCALE
1000
AcRTDxfName
1000
SCALE
  0
SCALE
  5
62A83
102
{ACAD_REACTORS
330
6285A
102
}
330
6285A
100
AcDbScale
 70
     0
300
1:10_8
140
1.0
141
10.0
290
     0
1001
ACAD
1000
AcRTDxfName
1000
SCALE
1000
AcRTDxfName
1000
SCALE
1000
AcRTDxfName
1000
SCALE
1000
AcRTDxfName
1000
SCALE
1000
AcRTDxfName
1000
SCALE
1000
AcRTDxfName
1000
SCALE
1000
AcRTDxfName
1000
SCALE
  0
SCALE
  5
62A84
102
{ACAD_REACTORS
330
6285A
102
}
330
6285A
100
AcDbScale
 70
     0
300
1:20_7_1_1
140
1.0
141
20.0
290
     0
1001
ACAD
1000
AcRTDxfName
1000
SCALE
1000
AcRTDxfName
1000
SCALE
1000
AcRTDxfName
1000
SCALE
1000
AcRTDxfName
1000
SCALE
1000
AcRTDxfName
1000
SCALE
1000
AcRTDxfName
1000
SCALE
1000
AcRTDxfName
1000
SCALE
  0
SCALE
  5
62A85
102
{ACAD_REACTORS
330
6285A
102
}
330
6285A
100
AcDbScale
 70
     0
300
1:50_5_3
140
1.0
141
50.0
290
     0
1001
ACAD
1000
AcRTDxfName
1000
SCALE
1000
AcRTDxfName
1000
SCALE
1000
AcRTDxfName
1000
SCALE
1000
AcRTDxfName
1000
SCALE
1000
AcRTDxfName
1000
SCALE
1000
AcRTDxfName
1000
SCALE
1000
AcRTDxfName
1000
SCALE
  0
SCALE
  5
62A86
102
{ACAD_REACTORS
330
6285A
102
}
330
6285A
100
AcDbScale
 70
     0
300
1:2_5_4
140
1.0
141
2.0
290
     0
1001
ACAD
1000
AcRTDxfName
1000
SCALE
1000
AcRTDxfName
1000
SCALE
1000
AcRTDxfName
1000
SCALE
1000
AcRTDxfName
1000
SCALE
1000
AcRTDxfName
1000
SCALE
1000
AcRTDxfName
1000
SCALE
1000
AcRTDxfName
1000
SCALE
  0
SCALE
  5
62A87
102
{ACAD_REACTORS
330
6285A
102
}
330
6285A
100
AcDbScale
 70
     0
300
1:10_15
140
1.0
141
0.01
290
     0
1001
ACAD
1000
AcRTDxfName
1000
SCALE
1000
AcRTDxfName
1000
SCALE
1000
AcRTDxfName
1000
SCALE
1000
AcRTDxfName
1000
SCALE
1000
AcRTDxfName
1000
SCALE
1000
AcRTDxfName
1000
SCALE
1000
AcRTDxfName
1000
SCALE
  0
SCALE
  5
62A52
102
{ACAD_REACTORS
330
6285A
102
}
330
6285A
100
AcDbScale
 70
     0
300
1:2_1_3
140
1.0
141
2.0
290
     0
1001
ACAD
1000
AcRTDxfName
1000
SCALE
1000
AcRTDxfName
1000
SCALE
1000
AcRTDxfName
1000
SCALE
1000
AcRTDxfName
1000
SCALE
1000
AcRTDxfName
1000
SCALE
1000
AcRTDxfName
1000
SCALE
1000
AcRTDxfName
1000
SCALE
  0
SCALE
  5
62A88
102
{ACAD_REACTORS
330
6285A
102
}
330
6285A
100
AcDbScale
 70
     0
300
1:5_1_8
140
1.0
141
5.0
290
     0
1001
ACAD
1000
AcRTDxfName
1000
SCALE
1000
AcRTDxfName
1000
SCALE
1000
AcRTDxfName
1000
SCALE
1000
AcRTDxfName
1000
SCALE
1000
AcRTDxfName
1000
SCALE
1000
AcRTDxfName
1000
SCALE
1000
AcRTDxfName
1000
SCALE
  0
SCALE
  5
62B17
102
{ACAD_REACTORS
330
6285A
102
}
330
6285A
100
AcDbScale
 70
     0
300
1:1_6_2
140
1.0
141
0.001
290
     0
1001
ACAD
1000
AcRTDxfName
1000
SCALE
1000
AcRTDxfName
1000
SCALE
1000
AcRTDxfName
1000
SCALE
1000
AcRTDxfName
1000
SCALE
1000
AcRTDxfName
1000
SCALE
1000
AcRTDxfName
1000
SCALE
1000
AcRTDxfName
1000
SCALE
  0
SCALE
  5
62A89
102
{ACAD_REACTORS
330
6285A
102
}
330
6285A
100
AcDbScale
 70
     0
300
1:5_2_1
140
1.0
141
5.0
290
     0
1001
ACAD
1000
AcRTDxfName
1000
SCALE
1000
AcRTDxfName
1000
SCALE
1000
AcRTDxfName
1000
SCALE
1000
AcRTDxfName
1000
SCALE
1000
AcRTDxfName
1000
SCALE
1000
AcRTDxfName
1000
SCALE
1000
AcRTDxfName
1000
SCALE
  0
SCALE
  5
62A8A
102
{ACAD_REACTORS
330
6285A
102
}
330
6285A
100
AcDbScale
 70
     0
300
1:100_9
140
1.0
141
0.1
290
     0
1001
ACAD
1000
AcRTDxfName
1000
SCALE
1000
AcRTDxfName
1000
SCALE
1000
AcRTDxfName
1000
SCALE
1000
AcRTDxfName
1000
SCALE
1000
AcRTDxfName
1000
SCALE
1000
AcRTDxfName
1000
SCALE
1000
AcRTDxfName
1000
SCALE
  0
SCALE
  5
62AC8
102
{ACAD_REACTORS
330
6285A
102
}
330
6285A
100
AcDbScale
 70
     0
300
1:2_6_1
140
1.0
141
0.002
290
     0
1001
ACAD
1000
AcRTDxfName
1000
SCALE
1000
AcRTDxfName
1000
SCALE
1000
AcRTDxfName
1000
SCALE
1000
AcRTDxfName
1000
SCALE
1000
AcRTDxfName
1000
SCALE
1000
AcRTDxfName
1000
SCALE
1000
AcRTDxfName
1000
SCALE
  0
SCALE
  5
62A8B
102
{ACAD_REACTORS
330
6285A
102
}
330
6285A
100
AcDbScale
 70
     0
300
1:50_7_1
140
1.0
141
50.0
290
     0
1001
ACAD
1000
AcRTDxfName
1000
SCALE
1000
AcRTDxfName
1000
SCALE
1000
AcRTDxfName
1000
SCALE
1000
AcRTDxfName
1000
SCALE
1000
AcRTDxfName
1000
SCALE
1000
AcRTDxfName
1000
SCALE
1000
AcRTDxfName
1000
SCALE
  0
SCALE
  5
62A8C
102
{ACAD_REACTORS
330
6285A
102
}
330
6285A
100
AcDbScale
 70
     0
300
1:10_7_2
140
1.0
141
10.0
290
     0
1001
ACAD
1000
AcRTDxfName
1000
SCALE
1000
AcRTDxfName
1000
SCALE
1000
AcRTDxfName
1000
SCALE
1000
AcRTDxfName
1000
SCALE
1000
AcRTDxfName
1000
SCALE
1000
AcRTDxfName
1000
SCALE
1000
AcRTDxfName
1000
SCALE
  0
SCALE
  5
62A8D
102
{ACAD_REACTORS
330
6285A
102
}
330
6285A
100
AcDbScale
 70
     0
300
1:20_1_6
140
1.0
141
20.0
290
     0
1001
ACAD
1000
AcRTDxfName
1000
SCALE
1000
AcRTDxfName
1000
SCALE
1000
AcRTDxfName
1000
SCALE
1000
AcRTDxfName
1000
SCALE
1000
AcRTDxfName
1000
SCALE
1000
AcRTDxfName
1000
SCALE
1000
AcRTDxfName
1000
SCALE
  0
SCALE
  5
62A8E
102
{ACAD_REACTORS
330
6285A
102
}
330
6285A
100
AcDbScale
 70
     0
300
1:2_1
140
1.0
141
0.002
290
     0
1001
ACAD
1000
AcRTDxfName
1000
SCALE
1000
AcRTDxfName
1000
SCALE
1000
AcRTDxfName
1000
SCALE
1000
AcRTDxfName
1000
SCALE
1000
AcRTDxfName
1000
SCALE
1000
AcRTDxfName
1000
SCALE
1000
AcRTDxfName
1000
SCALE
1000
AcRTDxfName
1000
SCALE
1000
AcRTDxfName
1000
SCALE
1000
AcRTDxfName
1000
SCALE
  0
SCALE
  5
62A8F
102
{ACAD_REACTORS
330
6285A
102
}
330
6285A
100
AcDbScale
 70
     0
300
1:20_5_2_1
140
1.0
141
20.0
290
     0
1001
ACAD
1000
AcRTDxfName
1000
SCALE
1000
AcRTDxfName
1000
SCALE
1000
AcRTDxfName
1000
SCALE
1000
AcRTDxfName
1000
SCALE
1000
AcRTDxfName
1000
SCALE
1000
AcRTDxfName
1000
SCALE
1000
AcRTDxfName
1000
SCALE
  0
SCALE
  5
62A90
102
{ACAD_REACTORS
330
6285A
102
}
330
6285A
100
AcDbScale
 70
     0
300
1:10_1_2
140
1.0
141
10.0
290
     0
1001
ACAD
1000
AcRTDxfName
1000
SCALE
1000
AcRTDxfName
1000
SCALE
1000
AcRTDxfName
1000
SCALE
1000
AcRTDxfName
1000
SCALE
1000
AcRTDxfName
1000
SCALE
1000
AcRTDxfName
1000
SCALE
1000
AcRTDxfName
1000
SCALE
1000
AcRTDxfName
1000
SCALE
1000
AcRTDxfName
1000
SCALE
1000
AcRTDxfName
1000
SCALE
  0
SCALE
  5
62A91
102
{ACAD_REACTORS
330
6285A
102
}
330
6285A
100
AcDbScale
 70
     0
300
1:100_4
140
1.0
141
100.0
290
     0
1001
ACAD
1000
AcRTDxfName
1000
SCALE
1000
AcRTDxfName
1000
SCALE
1000
AcRTDxfName
1000
SCALE
1000
AcRTDxfName
1000
SCALE
1000
AcRTDxfName
1000
SCALE
1000
AcRTDxfName
1000
SCALE
1000
AcRTDxfName
1000
SCALE
  0
SCALE
  5
62B18
102
{ACAD_REACTORS
330
6285A
102
}
330
6285A
100
AcDbScale
 70
     0
300
1:20_7_1
140
1.0
141
0.02
290
     0
1001
ACAD
1000
AcRTDxfName
1000
SCALE
1000
AcRTDxfName
1000
SCALE
1000
AcRTDxfName
1000
SCALE
1000
AcRTDxfName
1000
SCALE
1000
AcRTDxfName
1000
SCALE
1000
AcRTDxfName
1000
SCALE
1000
AcRTDxfName
1000
SCALE
  0
SCALE
  5
62A53
102
{ACAD_REACTORS
330
6285A
102
}
330
6285A
100
AcDbScale
 70
     0
300
1:50_1_3
140
1.0
141
50.0
290
     0
1001
ACAD
1000
AcRTDxfName
1000
SCALE
1000
AcRTDxfName
1000
SCALE
1000
AcRTDxfName
1000
SCALE
1000
AcRTDxfName
1000
SCALE
1000
AcRTDxfName
1000
SCALE
1000
AcRTDxfName
1000
SCALE
1000
AcRTDxfName
1000
SCALE
  0
SCALE
  5
62A92
102
{ACAD_REACTORS
330
6285A
102
}
330
6285A
100
AcDbScale
 70
     0
300
1:10_2_1
140
1.0
141
10.0
290
     0
1001
ACAD
1000
AcRTDxfName
1000
SCALE
1000
AcRTDxfName
1000
SCALE
1000
AcRTDxfName
1000
SCALE
1000
AcRTDxfName
1000
SCALE
1000
AcRTDxfName
1000
SCALE
1000
AcRTDxfName
1000
SCALE
1000
AcRTDxfName
1000
SCALE
  0
SCALE
  5
62A93
102
{ACAD_REACTORS
330
6285A
102
}
330
6285A
100
AcDbScale
 70
     0
300
1:1_1_6
140
1.0
141
1.0
290
     0
1001
ACAD
1000
AcRTDxfName
1000
SCALE
1000
AcRTDxfName
1000
SCALE
1000
AcRTDxfName
1000
SCALE
1000
AcRTDxfName
1000
SCALE
1000
AcRTDxfName
1000
SCALE
1000
AcRTDxfName
1000
SCALE
1000
AcRTDxfName
1000
SCALE
  0
SCALE
  5
62AB0
102
{ACAD_REACTORS
330
6285A
102
}
330
6285A
100
AcDbScale
 70
     0
300
1:20_5_5
140
1.0
141
20.0
290
     0
1001
ACAD
1000
AcRTDxfName
1000
SCALE
1000
AcRTDxfName
1000
SCALE
1000
AcRTDxfName
1000
SCALE
1000
AcRTDxfName
1000
SCALE
1000
AcRTDxfName
1000
SCALE
1000
AcRTDxfName
1000
SCALE
1000
AcRTDxfName
1000
SCALE
  0
SCALE
  5
62AC9
102
{ACAD_REACTORS
330
6285A
102
}
330
6285A
100
AcDbScale
 70
     0
300
1:1_12
140
1.0
141
1.0
290
     0
1001
ACAD
1000
AcRTDxfName
1000
SCALE
1000
AcRTDxfName
1000
SCALE
1000
AcRTDxfName
1000
SCALE
1000
AcRTDxfName
1000
SCALE
1000
AcRTDxfName
1000
SCALE
1000
AcRTDxfName
1000
SCALE
1000
AcRTDxfName
1000
SCALE
  0
SCALE
  5
62A94
102
{ACAD_REACTORS
330
6285A
102
}
330
6285A
100
AcDbScale
 70
     0
300
1:20_5_7
140
1.0
141
0.02
290
     0
1001
ACAD
1000
AcRTDxfName
1000
SCALE
1000
AcRTDxfName
1000
SCALE
1000
AcRTDxfName
1000
SCALE
1000
AcRTDxfName
1000
SCALE
1000
AcRTDxfName
1000
SCALE
1000
AcRTDxfName
1000
SCALE
1000
AcRTDxfName
1000
SCALE
  0
SCALE
  5
62A95
102
{ACAD_REACTORS
330
6285A
102
}
330
6285A
100
AcDbScale
 70
     0
300
1:2_5_2
140
1.0
141
0.002
290
     0
1001
ACAD
1000
AcRTDxfName
1000
SCALE
1000
AcRTDxfName
1000
SCALE
1000
AcRTDxfName
1000
SCALE
1000
AcRTDxfName
1000
SCALE
1000
AcRTDxfName
1000
SCALE
1000
AcRTDxfName
1000
SCALE
1000
AcRTDxfName
1000
SCALE
  0
SCALE
  5
62A96
102
{ACAD_REACTORS
330
6285A
102
}
330
6285A
100
AcDbScale
 70
     0
300
1:2_1_5
140
1.0
141
2.0
290
     0
1001
ACAD
1000
AcRTDxfName
1000
SCALE
1000
AcRTDxfName
1000
SCALE
1000
AcRTDxfName
1000
SCALE
1000
AcRTDxfName
1000
SCALE
1000
AcRTDxfName
1000
SCALE
1000
AcRTDxfName
1000
SCALE
1000
AcRTDxfName
1000
SCALE
  0
SCALE
  5
62A97
102
{ACAD_REACTORS
330
6285A
102
}
330
6285A
100
AcDbScale
 70
     0
300
1:1_14
140
1.0
141
0.001
290
     0
1001
ACAD
1000
AcRTDxfName
1000
SCALE
1000
AcRTDxfName
1000
SCALE
1000
AcRTDxfName
1000
SCALE
1000
AcRTDxfName
1000
SCALE
1000
AcRTDxfName
1000
SCALE
1000
AcRTDxfName
1000
SCALE
1000
AcRTDxfName
1000
SCALE
  0
SCALE
  5
62A98
102
{ACAD_REACTORS
330
6285A
102
}
330
6285A
100
AcDbScale
 70
     0
300
1:100_1_1
140
1.0
141
100.0
290
     0
1001
ACAD
1000
AcRTDxfName
1000
SCALE
1000
AcRTDxfName
1000
SCALE
1000
AcRTDxfName
1000
SCALE
1000
AcRTDxfName
1000
SCALE
1000
AcRTDxfName
1000
SCALE
1000
AcRTDxfName
1000
SCALE
1000
AcRTDxfName
1000
SCALE
1000
AcRTDxfName
1000
SCALE
1000
AcRTDxfName
1000
SCALE
1000
AcRTDxfName
1000
SCALE
  0
SCALE
  5
62B19
102
{ACAD_REACTORS
330
6285A
102
}
330
6285A
100
AcDbScale
 70
     0
300
1:10_5_1
140
1.0
141
10.0
290
     0
1001
ACAD
1000
AcRTDxfName
1000
SCALE
1000
AcRTDxfName
1000
SCALE
1000
AcRTDxfName
1000
SCALE
1000
AcRTDxfName
1000
SCALE
1000
AcRTDxfName
1000
SCALE
1000
AcRTDxfName
1000
SCALE
1000
AcRTDxfName
1000
SCALE
  0
SCALE
  5
62A99
102
{ACAD_REACTORS
330
6285A
102
}
330
6285A
100
AcDbScale
 70
     0
300
1:50_7_3
140
1.0
141
0.05
290
     0
1001
ACAD
1000
AcRTDxfName
1000
SCALE
1000
AcRTDxfName
1000
SCALE
1000
AcRTDxfName
1000
SCALE
1000
AcRTDxfName
1000
SCALE
1000
AcRTDxfName
1000
SCALE
1000
AcRTDxfName
1000
SCALE
1000
AcRTDxfName
1000
SCALE
  0
SCALE
  5
62A9A
102
{ACAD_REACTORS
330
6285A
102
}
330
6285A
100
AcDbScale
 70
     0
300
1:1_6
140
1.0
141
1.0
290
     0
1001
ACAD
1000
AcRTDxfName
1000
SCALE
1000
AcRTDxfName
1000
SCALE
1000
AcRTDxfName
1000
SCALE
1000
AcRTDxfName
1000
SCALE
1000
AcRTDxfName
1000
SCALE
1000
AcRTDxfName
1000
SCALE
1000
AcRTDxfName
1000
SCALE
  0
SCALE
  5
62A9B
102
{ACAD_REACTORS
330
6285A
102
}
330
6285A
100
AcDbScale
 70
     0
300
1:50_5_4_1
140
1.0
141
50.0
290
     0
1001
ACAD
1000
AcRTDxfName
1000
SCALE
1000
AcRTDxfName
1000
SCALE
1000
AcRTDxfName
1000
SCALE
1000
AcRTDxfName
1000
SCALE
1000
AcRTDxfName
1000
SCALE
1000
AcRTDxfName
1000
SCALE
1000
AcRTDxfName
1000
SCALE
  0
SCALE
  5
62A54
102
{ACAD_REACTORS
330
6285A
102
}
330
6285A
100
AcDbScale
 70
     0
300
1:10_7_1
140
1.0
141
0.01
290
     0
1001
ACAD
1000
AcRTDxfName
1000
SCALE
1000
AcRTDxfName
1000
SCALE
1000
AcRTDxfName
1000
SCALE
1000
AcRTDxfName
1000
SCALE
1000
AcRTDxfName
1000
SCALE
1000
AcRTDxfName
1000
SCALE
1000
AcRTDxfName
1000
SCALE
  0
SCALE
  5
62A9C
102
{ACAD_REACTORS
330
6285A
102
}
330
6285A
100
AcDbScale
 70
     0
300
1:100_5_6
140
1.0
141
100.0
290
     0
1001
ACAD
1000
AcRTDxfName
1000
SCALE
1000
AcRTDxfName
1000
SCALE
1000
AcRTDxfName
1000
SCALE
1000
AcRTDxfName
1000
SCALE
1000
AcRTDxfName
1000
SCALE
1000
AcRTDxfName
1000
SCALE
1000
AcRTDxfName
1000
SCALE
  0
SCALE
  5
62ACA
102
{ACAD_REACTORS
330
6285A
102
}
330
6285A
100
AcDbScale
 70
     0
300
1:20_7_2
140
1.0
141
20.0
290
     0
1001
ACAD
1000
AcRTDxfName
1000
SCALE
1000
AcRTDxfName
1000
SCALE
1000
AcRTDxfName
1000
SCALE
1000
AcRTDxfName
1000
SCALE
1000
AcRTDxfName
1000
SCALE
1000
AcRTDxfName
1000
SCALE
1000
AcRTDxfName
1000
SCALE
  0
SCALE
  5
62A9D
102
{ACAD_REACTORS
330
6285A
102
}
330
6285A
100
AcDbScale
 70
     0
300
1:5_6_1
140
1.0
141
5.0
290
     0
1001
ACAD
1000
AcRTDxfName
1000
SCALE
1000
AcRTDxfName
1000
SCALE
1000
AcRTDxfName
1000
SCALE
1000
AcRTDxfName
1000
SCALE
1000
AcRTDxfName
1000
SCALE
1000
AcRTDxfName
1000
SCALE
1000
AcRTDxfName
1000
SCALE
  0
SCALE
  5
62A9E
102
{ACAD_REACTORS
330
6285A
102
}
330
6285A
100
AcDbScale
 70
     0
300
1:100_2_2
140
1.0
141
100.0
290
     0
1001
ACAD
1000
AcRTDxfName
1000
SCALE
1000
AcRTDxfName
1000
SCALE
1000
AcRTDxfName
1000
SCALE
1000
AcRTDxfName
1000
SCALE
1000
AcRTDxfName
1000
SCALE
1000
AcRTDxfName
1000
SCALE
1000
AcRTDxfName
1000
SCALE
  0
SCALE
  5
62A9F
102
{ACAD_REACTORS
330
6285A
102
}
330
6285A
100
AcDbScale
 70
     0
300
1:2_7_2
140
1.0
141
0.002
290
     0
1001
ACAD
1000
AcRTDxfName
1000
SCALE
1000
AcRTDxfName
1000
SCALE
1000
AcRTDxfName
1000
SCALE
1000
AcRTDxfName
1000
SCALE
1000
AcRTDxfName
1000
SCALE
1000
AcRTDxfName
1000
SCALE
1000
AcRTDxfName
1000
SCALE
  0
SCALE
  5
62AA0
102
{ACAD_REACTORS
330
6285A
102
}
330
6285A
100
AcDbScale
 70
     0
300
1:5_6_2
140
1.0
141
5.0
290
     0
1001
ACAD
1000
AcRTDxfName
1000
SCALE
1000
AcRTDxfName
1000
SCALE
1000
AcRTDxfName
1000
SCALE
1000
AcRTDxfName
1000
SCALE
1000
AcRTDxfName
1000
SCALE
1000
AcRTDxfName
1000
SCALE
1000
AcRTDxfName
1000
SCALE
  0
SCALE
  5
62AB9
102
{ACAD_REACTORS
330
6285A
102
}
330
6285A
100
AcDbScale
 70
     0
300
1:50_2
140
1.0
141
0.05
290
     0
1001
ACAD
1000
AcRTDxfName
1000
SCALE
1000
AcRTDxfName
1000
SCALE
1000
AcRTDxfName
1000
SCALE
1000
AcRTDxfName
1000
SCALE
1000
AcRTDxfName
1000
SCALE
1000
AcRTDxfName
1000
SCALE
1000
AcRTDxfName
1000
SCALE
1000
AcRTDxfName
1000
SCALE
1000
AcRTDxfName
1000
SCALE
1000
AcRTDxfName
1000
SCALE
  0
SCALE
  5
62AA1
102
{ACAD_REACTORS
330
6285A
102
}
330
6285A
100
AcDbScale
 70
     0
300
1:1_7_2
140
1.0
141
1.0
290
     0
1001
ACAD
1000
AcRTDxfName
1000
SCALE
1000
AcRTDxfName
1000
SCALE
1000
AcRTDxfName
1000
SCALE
1000
AcRTDxfName
1000
SCALE
1000
AcRTDxfName
1000
SCALE
1000
AcRTDxfName
1000
SCALE
1000
AcRTDxfName
1000
SCALE
  0
SCALE
  5
62AA2
102
{ACAD_REACTORS
330
6285A
102
}
330
6285A
100
AcDbScale
 70
     0
300
1:20_15
140
1.0
141
0.02
290
     0
1001
ACAD
1000
AcRTDxfName
1000
SCALE
1000
AcRTDxfName
1000
SCALE
1000
AcRTDxfName
1000
SCALE
1000
AcRTDxfName
1000
SCALE
1000
AcRTDxfName
1000
SCALE
1000
AcRTDxfName
1000
SCALE
1000
AcRTDxfName
1000
SCALE
  0
SCALE
  5
62AA3
102
{ACAD_REACTORS
330
6285A
102
}
330
6285A
100
AcDbScale
 70
     0
300
1:5_1_6
140
1.0
141
5.0
290
     0
1001
ACAD
1000
AcRTDxfName
1000
SCALE
1000
AcRTDxfName
1000
SCALE
1000
AcRTDxfName
1000
SCALE
1000
AcRTDxfName
1000
SCALE
1000
AcRTDxfName
1000
SCALE
1000
AcRTDxfName
1000
SCALE
1000
AcRTDxfName
1000
SCALE
  0
SCALE
  5
62AA4
102
{ACAD_REACTORS
330
6285A
102
}
330
6285A
100
AcDbScale
 70
     0
300
1:50_14
140
1.0
141
0.05
290
     0
1001
ACAD
1000
AcRTDxfName
1000
SCALE
1000
AcRTDxfName
1000
SCALE
1000
AcRTDxfName
1000
SCALE
1000
AcRTDxfName
1000
SCALE
1000
AcRTDxfName
1000
SCALE
1000
AcRTDxfName
1000
SCALE
1000
AcRTDxfName
1000
SCALE
  0
SCALE
  5
62AA5
102
{ACAD_REACTORS
330
6285A
102
}
330
6285A
100
AcDbScale
 70
     0
300
1:50_2_2
140
1.0
141
50.0
290
     0
1001
ACAD
1000
AcRTDxfName
1000
SCALE
1000
AcRTDxfName
1000
SCALE
1000
AcRTDxfName
1000
SCALE
1000
AcRTDxfName
1000
SCALE
1000
AcRTDxfName
1000
SCALE
1000
AcRTDxfName
1000
SCALE
1000
AcRTDxfName
1000
SCALE
  0
SCALE
  5
62A55
102
{ACAD_REACTORS
330
6285A
102
}
330
6285A
100
AcDbScale
 70
     0
300
1:5_2_2
140
1.0
141
5.0
290
     0
1001
ACAD
1000
AcRTDxfName
1000
SCALE
1000
AcRTDxfName
1000
SCALE
1000
AcRTDxfName
1000
SCALE
1000
AcRTDxfName
1000
SCALE
1000
AcRTDxfName
1000
SCALE
1000
AcRTDxfName
1000
SCALE
1000
AcRTDxfName
1000
SCALE
  0
SCALE
  5
62ACB
102
{ACAD_REACTORS
330
6285A
102
}
330
6285A
100
AcDbScale
 70
     0
300
1:10_12
140
1.0
141
0.01
290
     0
1001
ACAD
1000
AcRTDxfName
1000
SCALE
1000
AcRTDxfName
1000
SCALE
1000
AcRTDxfName
1000
SCALE
1000
AcRTDxfName
1000
SCALE
1000
AcRTDxfName
1000
SCALE
1000
AcRTDxfName
1000
SCALE
1000
AcRTDxfName
1000
SCALE
  0
SCALE
  5
62AA6
102
{ACAD_REACTORS
330
6285A
102
}
330
6285A
100
AcDbScale
 70
     0
300
1:10_2_3
140
1.0
141
10.0
290
     0
1001
ACAD
1000
AcRTDxfName
1000
SCALE
1000
AcRTDxfName
1000
SCALE
1000
AcRTDxfName
1000
SCALE
1000
AcRTDxfName
1000
SCALE
1000
AcRTDxfName
1000
SCALE
1000
AcRTDxfName
1000
SCALE
1000
AcRTDxfName
1000
SCALE
  0
SCALE
  5
62AA7
102
{ACAD_REACTORS
330
6285A
102
}
330
6285A
100
AcDbScale
 70
     0
300
1:5_5_1
140
1.0
141
5.0
290
     0
1001
ACAD
1000
AcRTDxfName
1000
SCALE
1000
AcRTDxfName
1000
SCALE
1000
AcRTDxfName
1000
SCALE
1000
AcRTDxfName
1000
SCALE
1000
AcRTDxfName
1000
SCALE
1000
AcRTDxfName
1000
SCALE
1000
AcRTDxfName
1000
SCALE
  0
SCALE
  5
62AA8
102
{ACAD_REACTORS
330
6285A
102
}
330
6285A
100
AcDbScale
 70
     0
300
1:50_3
140
1.0
141
0.05
290
     0
1001
ACAD
1000
AcRTDxfName
1000
SCALE
1000
AcRTDxfName
1000
SCALE
1000
AcRTDxfName
1000
SCALE
1000
AcRTDxfName
1000
SCALE
1000
AcRTDxfName
1000
SCALE
1000
AcRTDxfName
1000
SCALE
1000
AcRTDxfName
1000
SCALE
  0
SCALE
  5
62B1A
102
{ACAD_REACTORS
330
6285A
102
}
330
6285A
100
AcDbScale
 70
     0
300
1:15
140
1.0
141
15.0
290
     0
  0
SCALE
  5
62AA9
102
{ACAD_REACTORS
330
6285A
102
}
330
6285A
100
AcDbScale
 70
     0
300
1:20_1_5
140
1.0
141
20.0
290
     0
1001
ACAD
1000
AcRTDxfName
1000
SCALE
1000
AcRTDxfName
1000
SCALE
1000
AcRTDxfName
1000
SCALE
1000
AcRTDxfName
1000
SCALE
1000
AcRTDxfName
1000
SCALE
1000
AcRTDxfName
1000
SCALE
1000
AcRTDxfName
1000
SCALE
  0
SCALE
  5
62AAA
102
{ACAD_REACTORS
330
6285A
102
}
330
6285A
100
AcDbScale
 70
     0
300
1:20_16
140
1.0
141
0.02
290
     0
1001
ACAD
1000
AcRTDxfName
1000
SCALE
1000
AcRTDxfName
1000
SCALE
1000
AcRTDxfName
1000
SCALE
1000
AcRTDxfName
1000
SCALE
1000
AcRTDxfName
1000
SCALE
1000
AcRTDxfName
1000
SCALE
1000
AcRTDxfName
1000
SCALE
  0
SCALE
  5
62AAB
102
{ACAD_REACTORS
330
6285A
102
}
330
6285A
100
AcDbScale
 70
     0
300
1:20_5_6
140
1.0
141
20.0
290
     0
1001
ACAD
1000
AcRTDxfName
1000
SCALE
1000
AcRTDxfName
1000
SCALE
1000
AcRTDxfName
1000
SCALE
1000
AcRTDxfName
1000
SCALE
1000
AcRTDxfName
1000
SCALE
1000
AcRTDxfName
1000
SCALE
1000
AcRTDxfName
1000
SCALE
  0
SCALE
  5
62AAC
102
{ACAD_REACTORS
330
6285A
102
}
330
6285A
100
AcDbScale
 70
     0
300
1:20_6_1
140
1.0
141
20.0
290
     0
1001
ACAD
1000
AcRTDxfName
1000
SCALE
1000
AcRTDxfName
1000
SCALE
1000
AcRTDxfName
1000
SCALE
1000
AcRTDxfName
1000
SCALE
1000
AcRTDxfName
1000
SCALE
1000
AcRTDxfName
1000
SCALE
1000
AcRTDxfName
1000
SCALE
  0
SCALE
  5
62AAD
102
{ACAD_REACTORS
330
6285A
102
}
330
6285A
100
AcDbScale
 70
     0
300
1:1_1_17
140
1.0
141
1.0
290
     0
  0
SCALE
  5
62AAE
102
{ACAD_REACTORS
330
6285A
102
}
330
6285A
100
AcDbScale
 70
     0
300
1" = 1'
140
1.0
141
1.0
290
     0
  0
SCALE
  5
62AAF
102
{ACAD_REACTORS
330
6285A
102
}
330
6285A
100
AcDbScale
 70
     0
300
1:1_7_1
140
1.0
141
1.0
290
     0
1001
ACAD
1000
AcRTDxfName
1000
SCALE
1000
AcRTDxfName
1000
SCALE
1000
AcRTDxfName
1000
SCALE
1000
AcRTDxfName
1000
SCALE
1000
AcRTDxfName
1000
SCALE
1000
AcRTDxfName
1000
SCALE
1000
AcRTDxfName
1000
SCALE
  0
SCALE
  5
62ACC
102
{ACAD_REACTORS
330
6285A
102
}
330
6285A
100
AcDbScale
 70
     0
300
1:100_14
140
1.0
141
0.1
290
     0
1001
ACAD
1000
AcRTDxfName
1000
SCALE
1000
AcRTDxfName
1000
SCALE
1000
AcRTDxfName
1000
SCALE
1000
AcRTDxfName
1000
SCALE
1000
AcRTDxfName
1000
SCALE
1000
AcRTDxfName
1000
SCALE
1000
AcRTDxfName
1000
SCALE
  0
SCALE
  5
62ACD
102
{ACAD_REACTORS
330
6285A
102
}
330
6285A
100
AcDbScale
 70
     0
300
1:50_16
140
1.0
141
0.05
290
     0
1001
ACAD
1000
AcRTDxfName
1000
SCALE
1000
AcRTDxfName
1000
SCALE
1000
AcRTDxfName
1000
SCALE
1000
AcRTDxfName
1000
SCALE
1000
AcRTDxfName
1000
SCALE
1000
AcRTDxfName
1000
SCALE
1000
AcRTDxfName
1000
SCALE
  0
SCALE
  5
62A59
102
{ACAD_REACTORS
330
6285A
102
}
330
6285A
100
AcDbScale
 70
     0
300
1:50_7_2_1
140
1.0
141
50.0
290
     0
1001
ACAD
1000
AcRTDxfName
1000
SCALE
1000
AcRTDxfName
1000
SCALE
1000
AcRTDxfName
1000
SCALE
1000
AcRTDxfName
1000
SCALE
1000
AcRTDxfName
1000
SCALE
1000
AcRTDxfName
1000
SCALE
1000
AcRTDxfName
1000
SCALE
  0
SCALE
  5
62B1B
102
{ACAD_REACTORS
330
6285A
102
}
330
6285A
100
AcDbScale
 70
     0
300
1:5_1_4
140
1.0
141
5.0
290
     0
1001
ACAD
1000
AcRTDxfName
1000
SCALE
1000
AcRTDxfName
1000
SCALE
1000
AcRTDxfName
1000
SCALE
1000
AcRTDxfName
1000
SCALE
1000
AcRTDxfName
1000
SCALE
1000
AcRTDxfName
1000
SCALE
1000
AcRTDxfName
1000
SCALE
  0
SCALE
  5
62ACE
102
{ACAD_REACTORS
330
6285A
102
}
330
6285A
100
AcDbScale
 70
     0
300
1:20_7_3
140
1.0
141
0.02
290
     0
1001
ACAD
1000
AcRTDxfName
1000
SCALE
1000
AcRTDxfName
1000
SCALE
1000
AcRTDxfName
1000
SCALE
1000
AcRTDxfName
1000
SCALE
1000
AcRTDxfName
1000
SCALE
1000
AcRTDxfName
1000
SCALE
1000
AcRTDxfName
1000
SCALE
  0
SCALE
  5
62ACF
102
{ACAD_REACTORS
330
6285A
102
}
330
6285A
100
AcDbScale
 70
     0
300
1:2_8
140
1.0
141
2.0
290
     0
1001
ACAD
1000
AcRTDxfName
1000
SCALE
1000
AcRTDxfName
1000
SCALE
1000
AcRTDxfName
1000
SCALE
1000
AcRTDxfName
1000
SCALE
1000
AcRTDxfName
1000
SCALE
1000
AcRTDxfName
1000
SCALE
1000
AcRTDxfName
1000
SCALE
  0
SCALE
  5
62AD0
102
{ACAD_REACTORS
330
6285A
102
}
330
6285A
100
AcDbScale
 70
     0
300
1:1_7
140
1.0
141
1.0
290
     0
1001
ACAD
1000
AcRTDxfName
1000
SCALE
1000
AcRTDxfName
1000
SCALE
1000
AcRTDxfName
1000
SCALE
1000
AcRTDxfName
1000
SCALE
1000
AcRTDxfName
1000
SCALE
1000
AcRTDxfName
1000
SCALE
1000
AcRTDxfName
1000
SCALE
  0
SCALE
  5
62AD1
102
{ACAD_REACTORS
330
6285A
102
}
330
6285A
100
AcDbScale
 70
     0
300
1:50_12
140
1.0
141
0.05
290
     0
1001
ACAD
1000
AcRTDxfName
1000
SCALE
1000
AcRTDxfName
1000
SCALE
1000
AcRTDxfName
1000
SCALE
1000
AcRTDxfName
1000
SCALE
1000
AcRTDxfName
1000
SCALE
1000
AcRTDxfName
1000
SCALE
1000
AcRTDxfName
1000
SCALE
  0
SCALE
  5
62AB1
102
{ACAD_REACTORS
330
6285A
102
}
330
6285A
100
AcDbScale
 70
     0
300
1:2_8_1
140
1.0
141
0.002
290
     0
1001
ACAD
1000
AcRTDxfName
1000
SCALE
1000
AcRTDxfName
1000
SCALE
1000
AcRTDxfName
1000
SCALE
1000
AcRTDxfName
1000
SCALE
1000
AcRTDxfName
1000
SCALE
1000
AcRTDxfName
1000
SCALE
1000
AcRTDxfName
1000
SCALE
  0
SCALE
  5
62AD2
102
{ACAD_REACTORS
330
6285A
102
}
330
6285A
100
AcDbScale
 70
     0
300
1:50_6
140
1.0
141
50.0
290
     0
1001
ACAD
1000
AcRTDxfName
1000
SCALE
1000
AcRTDxfName
1000
SCALE
1000
AcRTDxfName
1000
SCALE
1000
AcRTDxfName
1000
SCALE
1000
AcRTDxfName
1000
SCALE
1000
AcRTDxfName
1000
SCALE
1000
AcRTDxfName
1000
SCALE
  0
SCALE
  5
62AD3
102
{ACAD_REACTORS
330
6285A
102
}
330
6285A
100
AcDbScale
 70
     0
300
1:10_2
140
1.0
141
0.01
290
     0
1001
ACAD
1000
AcRTDxfName
1000
SCALE
1000
AcRTDxfName
1000
SCALE
1000
AcRTDxfName
1000
SCALE
1000
AcRTDxfName
1000
SCALE
1000
AcRTDxfName
1000
SCALE
1000
AcRTDxfName
1000
SCALE
1000
AcRTDxfName
1000
SCALE
  0
SCALE
  5
62AD4
102
{ACAD_REACTORS
330
6285A
102
}
330
6285A
100
AcDbScale
 70
     0
300
1:100_8_2
140
1.0
141
0.1
290
     0
1001
ACAD
1000
AcRTDxfName
1000
SCALE
1000
AcRTDxfName
1000
SCALE
1000
AcRTDxfName
1000
SCALE
1000
AcRTDxfName
1000
SCALE
1000
AcRTDxfName
1000
SCALE
1000
AcRTDxfName
1000
SCALE
1000
AcRTDxfName
1000
SCALE
  0
SCALE
  5
62AD5
102
{ACAD_REACTORS
330
6285A
102
}
330
6285A
100
AcDbScale
 70
     0
300
1:2_11
140
1.0
141
2.0
290
     0
1001
ACAD
1000
AcRTDxfName
1000
SCALE
1000
AcRTDxfName
1000
SCALE
1000
AcRTDxfName
1000
SCALE
1000
AcRTDxfName
1000
SCALE
1000
AcRTDxfName
1000
SCALE
1000
AcRTDxfName
1000
SCALE
1000
AcRTDxfName
1000
SCALE
  0
SCALE
  5
62AD6
102
{ACAD_REACTORS
330
6285A
102
}
330
6285A
100
AcDbScale
 70
     0
300
1:50_1_5
140
1.0
141
50.0
290
     0
1001
ACAD
1000
AcRTDxfName
1000
SCALE
1000
AcRTDxfName
1000
SCALE
1000
AcRTDxfName
1000
SCALE
1000
AcRTDxfName
1000
SCALE
1000
AcRTDxfName
1000
SCALE
1000
AcRTDxfName
1000
SCALE
1000
AcRTDxfName
1000
SCALE
  0
SCALE
  5
62B1C
102
{ACAD_REACTORS
330
6285A
102
}
330
6285A
100
AcDbScale
 70
     0
300
1:100_1_7
140
1.0
141
100.0
290
     0
1001
ACAD
1000
AcRTDxfName
1000
SCALE
1000
AcRTDxfName
1000
SCALE
1000
AcRTDxfName
1000
SCALE
1000
AcRTDxfName
1000
SCALE
1000
AcRTDxfName
1000
SCALE
1000
AcRTDxfName
1000
SCALE
1000
AcRTDxfName
1000
SCALE
  0
SCALE
  5
62AD7
102
{ACAD_REACTORS
330
6285A
102
}
330
6285A
100
AcDbScale
 70
     0
300
1:50_1_8
140
1.0
141
50.0
290
     0
1001
ACAD
1000
AcRTDxfName
1000
SCALE
1000
AcRTDxfName
1000
SCALE
1000
AcRTDxfName
1000
SCALE
1000
AcRTDxfName
1000
SCALE
1000
AcRTDxfName
1000
SCALE
1000
AcRTDxfName
1000
SCALE
1000
AcRTDxfName
1000
SCALE
  0
SCALE
  5
62A5A
102
{ACAD_REACTORS
330
6285A
102
}
330
6285A
100
AcDbScale
 70
     0
300
1:1_1_7
140
1.0
141
1.0
290
     0
1001
ACAD
1000
AcRTDxfName
1000
SCALE
1000
AcRTDxfName
1000
SCALE
1000
AcRTDxfName
1000
SCALE
1000
AcRTDxfName
1000
SCALE
1000
AcRTDxfName
1000
SCALE
1000
AcRTDxfName
1000
SCALE
1000
AcRTDxfName
1000
SCALE
  0
SCALE
  5
62AD8
102
{ACAD_REACTORS
330
6285A
102
}
330
6285A
100
AcDbScale
 70
     0
300
1:2_6_2
140
1.0
141
2.0
290
     0
1001
ACAD
1000
AcRTDxfName
1000
SCALE
1000
AcRTDxfName
1000
SCALE
1000
AcRTDxfName
1000
SCALE
1000
AcRTDxfName
1000
SCALE
1000
AcRTDxfName
1000
SCALE
1000
AcRTDxfName
1000
SCALE
1000
AcRTDxfName
1000
SCALE
  0
SCALE
  5
62AD9
102
{ACAD_REACTORS
330
6285A
102
}
330
6285A
100
AcDbScale
 70
     0
300
1:100_8_1
140
1.0
141
0.1
290
     0
1001
ACAD
1000
AcRTDxfName
1000
SCALE
1000
AcRTDxfName
1000
SCALE
1000
AcRTDxfName
1000
SCALE
1000
AcRTDxfName
1000
SCALE
1000
AcRTDxfName
1000
SCALE
1000
AcRTDxfName
1000
SCALE
1000
AcRTDxfName
1000
SCALE
  0
SCALE
  5
62ADA
102
{ACAD_REACTORS
330
6285A
102
}
330
6285A
100
AcDbScale
 70
     0
300
1:100_5_1_1
140
1.0
141
100.0
290
     0
1001
ACAD
1000
AcRTDxfName
1000
SCALE
1000
AcRTDxfName
1000
SCALE
1000
AcRTDxfName
1000
SCALE
1000
AcRTDxfName
1000
SCALE
1000
AcRTDxfName
1000
SCALE
1000
AcRTDxfName
1000
SCALE
1000
AcRTDxfName
1000
SCALE
  0
SCALE
  5
62AB2
102
{ACAD_REACTORS
330
6285A
102
}
330
6285A
100
AcDbScale
 70
     0
300
1:20_1_8
140
1.0
141
20.0
290
     0
1001
ACAD
1000
AcRTDxfName
1000
SCALE
1000
AcRTDxfName
1000
SCALE
1000
AcRTDxfName
1000
SCALE
1000
AcRTDxfName
1000
SCALE
1000
AcRTDxfName
1000
SCALE
1000
AcRTDxfName
1000
SCALE
1000
AcRTDxfName
1000
SCALE
  0
SCALE
  5
62ADB
102
{ACAD_REACTORS
330
6285A
102
}
330
6285A
100
AcDbScale
 70
     0
300
1:10_5_3
140
1.0
141
10.0
290
     0
1001
ACAD
1000
AcRTDxfName
1000
SCALE
1000
AcRTDxfName
1000
SCALE
1000
AcRTDxfName
1000
SCALE
1000
AcRTDxfName
1000
SCALE
1000
AcRTDxfName
1000
SCALE
1000
AcRTDxfName
1000
SCALE
1000
AcRTDxfName
1000
SCALE
  0
SCALE
  5
62ADC
102
{ACAD_REACTORS
330
6285A
102
}
330
6285A
100
AcDbScale
 70
     0
300
1:5_5_2_2
140
1.0
141
5.0
290
     0
1001
ACAD
1000
AcRTDxfName
1000
SCALE
1000
AcRTDxfName
1000
SCALE
1000
AcRTDxfName
1000
SCALE
1000
AcRTDxfName
1000
SCALE
1000
AcRTDxfName
1000
SCALE
1000
AcRTDxfName
1000
SCALE
1000
AcRTDxfName
1000
SCALE
  0
SCALE
  5
62ADD
102
{ACAD_REACTORS
330
6285A
102
}
330
6285A
100
AcDbScale
 70
     0
300
1:5_7
140
1.0
141
5.0
290
     0
1001
ACAD
1000
AcRTDxfName
1000
SCALE
1000
AcRTDxfName
1000
SCALE
1000
AcRTDxfName
1000
SCALE
1000
AcRTDxfName
1000
SCALE
1000
AcRTDxfName
1000
SCALE
1000
AcRTDxfName
1000
SCALE
1000
AcRTDxfName
1000
SCALE
  0
SCALE
  5
62ADE
102
{ACAD_REACTORS
330
6285A
102
}
330
6285A
100
AcDbScale
 70
     0
300
1:5_7_1_2
140
1.0
141
5.0
290
     0
1001
ACAD
1000
AcRTDxfName
1000
SCALE
1000
AcRTDxfName
1000
SCALE
1000
AcRTDxfName
1000
SCALE
1000
AcRTDxfName
1000
SCALE
1000
AcRTDxfName
1000
SCALE
1000
AcRTDxfName
1000
SCALE
1000
AcRTDxfName
1000
SCALE
  0
SCALE
  5
62B1D
102
{ACAD_REACTORS
330
6285A
102
}
330
6285A
100
AcDbScale
 70
     0
300
1:1_1_1
140
1.0
141
1.0
290
     0
1001
ACAD
1000
AcRTDxfName
1000
SCALE
1000
AcRTDxfName
1000
SCALE
1000
AcRTDxfName
1000
SCALE
1000
AcRTDxfName
1000
SCALE
1000
AcRTDxfName
1000
SCALE
1000
AcRTDxfName
1000
SCALE
1000
AcRTDxfName
1000
SCALE
1000
AcRTDxfName
1000
SCALE
1000
AcRTDxfName
1000
SCALE
1000
AcRTDxfName
1000
SCALE
  0
SCALE
  5
62ADF
102
{ACAD_REACTORS
330
6285A
102
}
330
6285A
100
AcDbScale
 70
     0
300
1:100_16
140
1.0
141
0.1
290
     0
1001
ACAD
1000
AcRTDxfName
1000
SCALE
1000
AcRTDxfName
1000
SCALE
1000
AcRTDxfName
1000
SCALE
1000
AcRTDxfName
1000
SCALE
1000
AcRTDxfName
1000
SCALE
1000
AcRTDxfName
1000
SCALE
1000
AcRTDxfName
1000
SCALE
  0
SCALE
  5
62AE0
102
{ACAD_REACTORS
330
6285A
102
}
330
6285A
100
AcDbScale
 70
     0
300
1:2_9
140
1.0
141
0.002
290
     0
1001
ACAD
1000
AcRTDxfName
1000
SCALE
1000
AcRTDxfName
1000
SCALE
1000
AcRTDxfName
1000
SCALE
1000
AcRTDxfName
1000
SCALE
1000
AcRTDxfName
1000
SCALE
1000
AcRTDxfName
1000
SCALE
1000
AcRTDxfName
1000
SCALE
  0
SCALE
  5
62AE1
102
{ACAD_REACTORS
330
6285A
102
}
330
6285A
100
AcDbScale
 70
     0
300
1:100_7_1_2
140
1.0
141
100.0
290
     0
1001
ACAD
1000
AcRTDxfName
1000
SCALE
1000
AcRTDxfName
1000
SCALE
1000
AcRTDxfName
1000
SCALE
1000
AcRTDxfName
1000
SCALE
1000
AcRTDxfName
1000
SCALE
1000
AcRTDxfName
1000
SCALE
1000
AcRTDxfName
1000
SCALE
  0
SCALE
  5
62A5B
102
{ACAD_REACTORS
330
6285A
102
}
330
6285A
100
AcDbScale
 70
     0
300
1:5_7_2
140
1.0
141
0.005
290
     0
1001
ACAD
1000
AcRTDxfName
1000
SCALE
1000
AcRTDxfName
1000
SCALE
1000
AcRTDxfName
1000
SCALE
1000
AcRTDxfName
1000
SCALE
1000
AcRTDxfName
1000
SCALE
1000
AcRTDxfName
1000
SCALE
1000
AcRTDxfName
1000
SCALE
  0
SCALE
  5
62AE2
102
{ACAD_REACTORS
330
6285A
102
}
330
6285A
100
AcDbScale
 70
     0
300
1:100_5_5
140
1.0
141
100.0
290
     0
1001
ACAD
1000
AcRTDxfName
1000
SCALE
1000
AcRTDxfName
1000
SCALE
1000
AcRTDxfName
1000
SCALE
1000
AcRTDxfName
1000
SCALE
1000
AcRTDxfName
1000
SCALE
1000
AcRTDxfName
1000
SCALE
1000
AcRTDxfName
1000
SCALE
  0
SCALE
  5
62AE3
102
{ACAD_REACTORS
330
6285A
102
}
330
6285A
100
AcDbScale
 70
     0
300
1:100_15
140
1.0
141
0.1
290
     0
1001
ACAD
1000
AcRTDxfName
1000
SCALE
1000
AcRTDxfName
1000
SCALE
1000
AcRTDxfName
1000
SCALE
1000
AcRTDxfName
1000
SCALE
1000
AcRTDxfName
1000
SCALE
1000
AcRTDxfName
1000
SCALE
1000
AcRTDxfName
1000
SCALE
  0
SCALE
  5
62AB3
102
{ACAD_REACTORS
330
6285A
102
}
330
6285A
100
AcDbScale
 70
     0
300
1:2_2
140
1.0
141
0.002
290
     0
1001
ACAD
1000
AcRTDxfName
1000
SCALE
1000
AcRTDxfName
1000
SCALE
1000
AcRTDxfName
1000
SCALE
1000
AcRTDxfName
1000
SCALE
1000
AcRTDxfName
1000
SCALE
1000
AcRTDxfName
1000
SCALE
1000
AcRTDxfName
1000
SCALE
  0
SCALE
  5
62AE4
102
{ACAD_REACTORS
330
6285A
102
}
330
6285A
100
AcDbScale
 70
     0
300
1:1_9
140
1.0
141
0.001
290
     0
1001
ACAD
1000
AcRTDxfName
1000
SCALE
1000
AcRTDxfName
1000
SCALE
1000
AcRTDxfName
1000
SCALE
1000
AcRTDxfName
1000
SCALE
1000
AcRTDxfName
1000
SCALE
1000
AcRTDxfName
1000
SCALE
1000
AcRTDxfName
1000
SCALE
  0
SCALE
  5
62AE5
102
{ACAD_REACTORS
330
6285A
102
}
330
6285A
100
AcDbScale
 70
     0
300
1:2_1_8
140
1.0
141
2.0
290
     0
1001
ACAD
1000
AcRTDxfName
1000
SCALE
1000
AcRTDxfName
1000
SCALE
1000
AcRTDxfName
1000
SCALE
1000
AcRTDxfName
1000
SCALE
1000
AcRTDxfName
1000
SCALE
1000
AcRTDxfName
1000
SCALE
1000
AcRTDxfName
1000
SCALE
  0
SCALE
  5
62AE6
102
{ACAD_REACTORS
330
6285A
102
}
330
6285A
100
AcDbScale
 70
     0
300
1:5_8_2
140
1.0
141
0.005
290
     0
1001
ACAD
1000
AcRTDxfName
1000
SCALE
1000
AcRTDxfName
1000
SCALE
1000
AcRTDxfName
1000
SCALE
1000
AcRTDxfName
1000
SCALE
1000
AcRTDxfName
1000
SCALE
1000
AcRTDxfName
1000
SCALE
1000
AcRTDxfName
1000
SCALE
  0
SCALE
  5
62A61
102
{ACAD_REACTORS
330
6285A
102
}
330
6285A
100
AcDbScale
 70
     0
300
1:2_5_5
140
1.0
141
2.0
290
     0
1001
ACAD
1000
AcRTDxfName
1000
SCALE
1000
AcRTDxfName
1000
SCALE
1000
AcRTDxfName
1000
SCALE
1000
AcRTDxfName
1000
SCALE
1000
AcRTDxfName
1000
SCALE
1000
AcRTDxfName
1000
SCALE
1000
AcRTDxfName
1000
SCALE
  0
SCALE
  5
62AE7
102
{ACAD_REACTORS
330
6285A
102
}
330
6285A
100
AcDbScale
 70
     0
300
1:5_5_5
140
1.0
141
5.0
290
     0
1001
ACAD
1000
AcRTDxfName
1000
SCALE
1000
AcRTDxfName
1000
SCALE
1000
AcRTDxfName
1000
SCALE
1000
AcRTDxfName
1000
SCALE
1000
AcRTDxfName
1000
SCALE
1000
AcRTDxfName
1000
SCALE
1000
AcRTDxfName
1000
SCALE
  0
SCALE
  5
62AE8
102
{ACAD_REACTORS
330
6285A
102
}
330
6285A
100
AcDbScale
 70
     0
300
1:100_3_1
140
1.0
141
100.0
290
     0
1001
ACAD
1000
AcRTDxfName
1000
SCALE
1000
AcRTDxfName
1000
SCALE
1000
AcRTDxfName
1000
SCALE
1000
AcRTDxfName
1000
SCALE
1000
AcRTDxfName
1000
SCALE
1000
AcRTDxfName
1000
SCALE
1000
AcRTDxfName
1000
SCALE
  0
SCALE
  5
62AE9
102
{ACAD_REACTORS
330
6285A
102
}
330
6285A
100
AcDbScale
 70
     0
300
1:100_5_1
140
1.0
141
0.1
290
     0
1001
ACAD
1000
AcRTDxfName
1000
SCALE
1000
AcRTDxfName
1000
SCALE
1000
AcRTDxfName
1000
SCALE
1000
AcRTDxfName
1000
SCALE
1000
AcRTDxfName
1000
SCALE
1000
AcRTDxfName
1000
SCALE
1000
AcRTDxfName
1000
SCALE
  0
SCALE
  5
62AEA
102
{ACAD_REACTORS
330
6285A
102
}
330
6285A
100
AcDbScale
 70
     0
300
1:1_1_5
140
1.0
141
1.0
290
     0
1001
ACAD
1000
AcRTDxfName
1000
SCALE
1000
AcRTDxfName
1000
SCALE
1000
AcRTDxfName
1000
SCALE
1000
AcRTDxfName
1000
SCALE
1000
AcRTDxfName
1000
SCALE
1000
AcRTDxfName
1000
SCALE
1000
AcRTDxfName
1000
SCALE
  0
SCALE
  5
62AEB
102
{ACAD_REACTORS
330
6285A
102
}
330
6285A
100
AcDbScale
 70
     0
300
1:5_1_1
140
1.0
141
5.0
290
     0
1001
ACAD
1000
AcRTDxfName
1000
SCALE
1000
AcRTDxfName
1000
SCALE
1000
AcRTDxfName
1000
SCALE
1000
AcRTDxfName
1000
SCALE
1000
AcRTDxfName
1000
SCALE
1000
AcRTDxfName
1000
SCALE
1000
AcRTDxfName
1000
SCALE
1000
AcRTDxfName
1000
SCALE
1000
AcRTDxfName
1000
SCALE
1000
AcRTDxfName
1000
SCALE
  0
SCALE
  5
62A5C
102
{ACAD_REACTORS
330
6285A
102
}
330
6285A
100
AcDbScale
 70
     0
300
1:100_7
140
1.0
141
100.0
290
     0
1001
ACAD
1000
AcRTDxfName
1000
SCALE
1000
AcRTDxfName
1000
SCALE
1000
AcRTDxfName
1000
SCALE
1000
AcRTDxfName
1000
SCALE
1000
AcRTDxfName
1000
SCALE
1000
AcRTDxfName
1000
SCALE
1000
AcRTDxfName
1000
SCALE
  0
SCALE
  5
62AEC
102
{ACAD_REACTORS
330
6285A
102
}
330
6285A
100
AcDbScale
 70
     0
300
1:2_1_6
140
1.0
141
2.0
290
     0
1001
ACAD
1000
AcRTDxfName
1000
SCALE
1000
AcRTDxfName
1000
SCALE
1000
AcRTDxfName
1000
SCALE
1000
AcRTDxfName
1000
SCALE
1000
AcRTDxfName
1000
SCALE
1000
AcRTDxfName
1000
SCALE
1000
AcRTDxfName
1000
SCALE
  0
SCALE
  5
62AB4
102
{ACAD_REACTORS
330
6285A
102
}
330
6285A
100
AcDbScale
 70
     0
300
1:2_4
140
1.0
141
2.0
290
     0
1001
ACAD
1000
AcRTDxfName
1000
SCALE
1000
AcRTDxfName
1000
SCALE
1000
AcRTDxfName
1000
SCALE
1000
AcRTDxfName
1000
SCALE
1000
AcRTDxfName
1000
SCALE
1000
AcRTDxfName
1000
SCALE
1000
AcRTDxfName
1000
SCALE
  0
SCALE
  5
62AED
102
{ACAD_REACTORS
330
6285A
102
}
330
6285A
100
AcDbScale
 70
     0
300
1:1_8_1
140
1.0
141
0.001
290
     0
1001
ACAD
1000
AcRTDxfName
1000
SCALE
1000
AcRTDxfName
1000
SCALE
1000
AcRTDxfName
1000
SCALE
1000
AcRTDxfName
1000
SCALE
1000
AcRTDxfName
1000
SCALE
1000
AcRTDxfName
1000
SCALE
1000
AcRTDxfName
1000
SCALE
  0
SCALE
  5
62AEE
102
{ACAD_REACTORS
330
6285A
102
}
330
6285A
100
AcDbScale
 70
     0
300
1:10_5_5
140
1.0
141
10.0
290
     0
1001
ACAD
1000
AcRTDxfName
1000
SCALE
1000
AcRTDxfName
1000
SCALE
1000
AcRTDxfName
1000
SCALE
1000
AcRTDxfName
1000
SCALE
1000
AcRTDxfName
1000
SCALE
1000
AcRTDxfName
1000
SCALE
1000
AcRTDxfName
1000
SCALE
  0
SCALE
  5
62B09
102
{ACAD_REACTORS
330
6285A
102
}
330
6285A
100
AcDbScale
 70
     0
300
1:100_3
140
1.0
141
0.1
290
     0
1001
ACAD
1000
AcRTDxfName
1000
SCALE
1000
AcRTDxfName
1000
SCALE
1000
AcRTDxfName
1000
SCALE
1000
AcRTDxfName
1000
SCALE
1000
AcRTDxfName
1000
SCALE
1000
AcRTDxfName
1000
SCALE
1000
AcRTDxfName
1000
SCALE
  0
SCALE
  5
62B1E
102
{ACAD_REACTORS
330
6285A
102
}
330
6285A
100
AcDbScale
 70
     0
300
1:2_6_3
140
1.0
141
0.002
290
     0
1001
ACAD
1000
AcRTDxfName
1000
SCALE
1000
AcRTDxfName
1000
SCALE
1000
AcRTDxfName
1000
SCALE
1000
AcRTDxfName
1000
SCALE
1000
AcRTDxfName
1000
SCALE
1000
AcRTDxfName
1000
SCALE
1000
AcRTDxfName
1000
SCALE
  0
SCALE
  5
62AEF
102
{ACAD_REACTORS
330
6285A
102
}
330
6285A
100
AcDbScale
 70
     0
300
1:20_6
140
1.0
141
20.0
290
     0
1001
ACAD
1000
AcRTDxfName
1000
SCALE
1000
AcRTDxfName
1000
SCALE
1000
AcRTDxfName
1000
SCALE
1000
AcRTDxfName
1000
SCALE
1000
AcRTDxfName
1000
SCALE
1000
AcRTDxfName
1000
SCALE
1000
AcRTDxfName
1000
SCALE
  0
SCALE
  5
62AF0
102
{ACAD_REACTORS
330
6285A
102
}
330
6285A
100
AcDbScale
 70
     0
300
1:100_7_2
140
1.0
141
100.0
290
     0
1001
ACAD
1000
AcRTDxfName
1000
SCALE
1000
AcRTDxfName
1000
SCALE
1000
AcRTDxfName
1000
SCALE
1000
AcRTDxfName
1000
SCALE
1000
AcRTDxfName
1000
SCALE
1000
AcRTDxfName
1000
SCALE
1000
AcRTDxfName
1000
SCALE
  0
SCALE
  5
62AF1
102
{ACAD_REACTORS
330
6285A
102
}
330
6285A
100
AcDbScale
 70
     0
300
1:2_2_2
140
1.0
141
2.0
290
     0
1001
ACAD
1000
AcRTDxfName
1000
SCALE
1000
AcRTDxfName
1000
SCALE
1000
AcRTDxfName
1000
SCALE
1000
AcRTDxfName
1000
SCALE
1000
AcRTDxfName
1000
SCALE
1000
AcRTDxfName
1000
SCALE
1000
AcRTDxfName
1000
SCALE
  0
SCALE
  5
62AF2
102
{ACAD_REACTORS
330
6285A
102
}
330
6285A
100
AcDbScale
 70
     0
300
1:5_7_1
140
1.0
141
0.005
290
     0
1001
ACAD
1000
AcRTDxfName
1000
SCALE
1000
AcRTDxfName
1000
SCALE
1000
AcRTDxfName
1000
SCALE
1000
AcRTDxfName
1000
SCALE
1000
AcRTDxfName
1000
SCALE
1000
AcRTDxfName
1000
SCALE
1000
AcRTDxfName
1000
SCALE
  0
SCALE
  5
62AF3
102
{ACAD_REACTORS
330
6285A
102
}
330
6285A
100
AcDbScale
 70
     0
300
1:50_8_1
140
1.0
141
0.05
290
     0
1001
ACAD
1000
AcRTDxfName
1000
SCALE
1000
AcRTDxfName
1000
SCALE
1000
AcRTDxfName
1000
SCALE
1000
AcRTDxfName
1000
SCALE
1000
AcRTDxfName
1000
SCALE
1000
AcRTDxfName
1000
SCALE
1000
AcRTDxfName
1000
SCALE
  0
SCALE
  5
62AF4
102
{ACAD_REACTORS
330
6285A
102
}
330
6285A
100
AcDbScale
 70
     0
300
1:50_4
140
1.0
141
50.0
290
     0
1001
ACAD
1000
AcRTDxfName
1000
SCALE
1000
AcRTDxfName
1000
SCALE
1000
AcRTDxfName
1000
SCALE
1000
AcRTDxfName
1000
SCALE
1000
AcRTDxfName
1000
SCALE
1000
AcRTDxfName
1000
SCALE
1000
AcRTDxfName
1000
SCALE
  0
SCALE
  5
62AF5
102
{ACAD_REACTORS
330
6285A
102
}
330
6285A
100
AcDbScale
 70
     0
300
1:5_3
140
1.0
141
5.0
290
     0
1001
ACAD
1000
AcRTDxfName
1000
SCALE
1000
AcRTDxfName
1000
SCALE
1000
AcRTDxfName
1000
SCALE
1000
AcRTDxfName
1000
SCALE
1000
AcRTDxfName
1000
SCALE
1000
AcRTDxfName
1000
SCALE
1000
AcRTDxfName
1000
SCALE
  0
SCALE
  5
62A5D
102
{ACAD_REACTORS
330
6285A
102
}
330
6285A
100
AcDbScale
 70
     0
300
1:2_6
140
1.0
141
2.0
290
     0
1001
ACAD
1000
AcRTDxfName
1000
SCALE
1000
AcRTDxfName
1000
SCALE
1000
AcRTDxfName
1000
SCALE
1000
AcRTDxfName
1000
SCALE
1000
AcRTDxfName
1000
SCALE
1000
AcRTDxfName
1000
SCALE
1000
AcRTDxfName
1000
SCALE
  0
SCALE
  5
62AB5
102
{ACAD_REACTORS
330
6285A
102
}
330
6285A
100
AcDbScale
 70
     0
300
1:100_1_5
140
1.0
141
100.0
290
     0
1001
ACAD
1000
AcRTDxfName
1000
SCALE
1000
AcRTDxfName
1000
SCALE
1000
AcRTDxfName
1000
SCALE
1000
AcRTDxfName
1000
SCALE
1000
AcRTDxfName
1000
SCALE
1000
AcRTDxfName
1000
SCALE
1000
AcRTDxfName
1000
SCALE
  0
SCALE
  5
62AF6
102
{ACAD_REACTORS
330
6285A
102
}
330
6285A
100
AcDbScale
 70
     0
300
1:5_1_2
140
1.0
141
5.0
290
     0
1001
ACAD
1000
AcRTDxfName
1000
SCALE
1000
AcRTDxfName
1000
SCALE
1000
AcRTDxfName
1000
SCALE
1000
AcRTDxfName
1000
SCALE
1000
AcRTDxfName
1000
SCALE
1000
AcRTDxfName
1000
SCALE
1000
AcRTDxfName
1000
SCALE
1000
AcRTDxfName
1000
SCALE
1000
AcRTDxfName
1000
SCALE
1000
AcRTDxfName
1000
SCALE
  0
SCALE
  5
62B1F
102
{ACAD_REACTORS
330
6285A
102
}
330
6285A
100
AcDbScale
 70
     0
300
1:100_5_1_2
140
1.0
141
100.0
290
     0
1001
ACAD
1000
AcRTDxfName
1000
SCALE
1000
AcRTDxfName
1000
SCALE
1000
AcRTDxfName
1000
SCALE
1000
AcRTDxfName
1000
SCALE
1000
AcRTDxfName
1000
SCALE
1000
AcRTDxfName
1000
SCALE
1000
AcRTDxfName
1000
SCALE
  0
SCALE
  5
62AF7
102
{ACAD_REACTORS
330
6285A
102
}
330
6285A
100
AcDbScale
 70
     0
300
1:20_7_1_2
140
1.0
141
20.0
290
     0
1001
ACAD
1000
AcRTDxfName
1000
SCALE
1000
AcRTDxfName
1000
SCALE
1000
AcRTDxfName
1000
SCALE
1000
AcRTDxfName
1000
SCALE
1000
AcRTDxfName
1000
SCALE
1000
AcRTDxfName
1000
SCALE
1000
AcRTDxfName
1000
SCALE
  0
SCALE
  5
62AF8
102
{ACAD_REACTORS
330
6285A
102
}
330
6285A
100
AcDbScale
 70
     0
300
1:50_5_4_2
140
1.0
141
50.0
290
     0
1001
ACAD
1000
AcRTDxfName
1000
SCALE
1000
AcRTDxfName
1000
SCALE
1000
AcRTDxfName
1000
SCALE
1000
AcRTDxfName
1000
SCALE
1000
AcRTDxfName
1000
SCALE
1000
AcRTDxfName
1000
SCALE
1000
AcRTDxfName
1000
SCALE
  0
SCALE
  5
62AF9
102
{ACAD_REACTORS
330
6285A
102
}
330
6285A
100
AcDbScale
 70
     0
300
1:50_13
140
1.0
141
0.05
290
     0
1001
ACAD
1000
AcRTDxfName
1000
SCALE
1000
AcRTDxfName
1000
SCALE
1000
AcRTDxfName
1000
SCALE
1000
AcRTDxfName
1000
SCALE
1000
AcRTDxfName
1000
SCALE
1000
AcRTDxfName
1000
SCALE
1000
AcRTDxfName
1000
SCALE
  0
SCALE
  5
62AFA
102
{ACAD_REACTORS
330
6285A
102
}
330
6285A
100
AcDbScale
 70
     0
300
1:10_10
140
1.0
141
10.0
290
     0
1001
ACAD
1000
AcRTDxfName
1000
SCALE
1000
AcRTDxfName
1000
SCALE
1000
AcRTDxfName
1000
SCALE
1000
AcRTDxfName
1000
SCALE
1000
AcRTDxfName
1000
SCALE
1000
AcRTDxfName
1000
SCALE
1000
AcRTDxfName
1000
SCALE
  0
SCALE
  5
62AFB
102
{ACAD_REACTORS
330
6285A
102
}
330
6285A
100
AcDbScale
 70
     0
300
1:1_17
140
1.0
141
0.001
290
     0
1001
ACAD
1000
AcRTDxfName
1000
SCALE
1000
AcRTDxfName
1000
SCALE
1000
AcRTDxfName
1000
SCALE
1000
AcRTDxfName
1000
SCALE
1000
AcRTDxfName
1000
SCALE
1000
AcRTDxfName
1000
SCALE
1000
AcRTDxfName
1000
SCALE
  0
SCALE
  5
62AFC
102
{ACAD_REACTORS
330
6285A
102
}
330
6285A
100
AcDbScale
 70
     0
300
1:20_7
140
1.0
141
20.0
290
     0
1001
ACAD
1000
AcRTDxfName
1000
SCALE
1000
AcRTDxfName
1000
SCALE
1000
AcRTDxfName
1000
SCALE
1000
AcRTDxfName
1000
SCALE
1000
AcRTDxfName
1000
SCALE
1000
AcRTDxfName
1000
SCALE
1000
AcRTDxfName
1000
SCALE
  0
SCALE
  5
62AFD
102
{ACAD_REACTORS
330
6285A
102
}
330
6285A
100
AcDbScale
 70
     0
300
1:50_5_2
140
1.0
141
50.0
290
     0
1001
ACAD
1000
AcRTDxfName
1000
SCALE
1000
AcRTDxfName
1000
SCALE
1000
AcRTDxfName
1000
SCALE
1000
AcRTDxfName
1000
SCALE
1000
AcRTDxfName
1000
SCALE
1000
AcRTDxfName
1000
SCALE
1000
AcRTDxfName
1000
SCALE
  0
SCALE
  5
62AFE
102
{ACAD_REACTORS
330
6285A
102
}
330
6285A
100
AcDbScale
 70
     0
300
1:5_2
140
1.0
141
0.005
290
     0
1001
ACAD
1000
AcRTDxfName
1000
SCALE
1000
AcRTDxfName
1000
SCALE
1000
AcRTDxfName
1000
SCALE
1000
AcRTDxfName
1000
SCALE
1000
AcRTDxfName
1000
SCALE
1000
AcRTDxfName
1000
SCALE
1000
AcRTDxfName
1000
SCALE
  0
SCALE
  5
62AFF
102
{ACAD_REACTORS
330
6285A
102
}
330
6285A
100
AcDbScale
 70
     0
300
1:1_7_3
140
1.0
141
0.001
290
     0
1001
ACAD
1000
AcRTDxfName
1000
SCALE
1000
AcRTDxfName
1000
SCALE
1000
AcRTDxfName
1000
SCALE
1000
AcRTDxfName
1000
SCALE
1000
AcRTDxfName
1000
SCALE
1000
AcRTDxfName
1000
SCALE
1000
AcRTDxfName
1000
SCALE
  0
SCALE
  5
62AB6
102
{ACAD_REACTORS
330
6285A
102
}
330
6285A
100
AcDbScale
 70
     0
300
1:10_5_6
140
1.0
141
10.0
290
     0
1001
ACAD
1000
AcRTDxfName
1000
SCALE
1000
AcRTDxfName
1000
SCALE
1000
AcRTDxfName
1000
SCALE
1000
AcRTDxfName
1000
SCALE
1000
AcRTDxfName
1000
SCALE
1000
AcRTDxfName
1000
SCALE
1000
AcRTDxfName
1000
SCALE
  0
SCALE
  5
62B20
102
{ACAD_REACTORS
330
6285A
102
}
330
6285A
100
AcDbScale
 70
     0
300
1:5_2_3
140
1.0
141
5.0
290
     0
1001
ACAD
1000
AcRTDxfName
1000
SCALE
1000
AcRTDxfName
1000
SCALE
1000
AcRTDxfName
1000
SCALE
1000
AcRTDxfName
1000
SCALE
1000
AcRTDxfName
1000
SCALE
1000
AcRTDxfName
1000
SCALE
1000
AcRTDxfName
1000
SCALE
  0
SCALE
  5
62A5E
102
{ACAD_REACTORS
330
6285A
102
}
330
6285A
100
AcDbScale
 70
     0
300
1:20_5_4
140
1.0
141
20.0
290
     0
1001
ACAD
1000
AcRTDxfName
1000
SCALE
1000
AcRTDxfName
1000
SCALE
1000
AcRTDxfName
1000
SCALE
1000
AcRTDxfName
1000
SCALE
1000
AcRTDxfName
1000
SCALE
1000
AcRTDxfName
1000
SCALE
1000
AcRTDxfName
1000
SCALE
  0
SCALE
  5
62B00
102
{ACAD_REACTORS
330
6285A
102
}
330
6285A
100
AcDbScale
 70
     0
300
1:10_5
140
1.0
141
10.0
290
     0
1001
ACAD
1000
AcRTDxfName
1000
SCALE
1000
AcRTDxfName
1000
SCALE
1000
AcRTDxfName
1000
SCALE
1000
AcRTDxfName
1000
SCALE
1000
AcRTDxfName
1000
SCALE
1000
AcRTDxfName
1000
SCALE
1000
AcRTDxfName
1000
SCALE
  0
SCALE
  5
62B01
102
{ACAD_REACTORS
330
6285A
102
}
330
6285A
100
AcDbScale
 70
     0
300
1:20_1
140
1.0
141
0.02
290
     0
1001
ACAD
1000
AcRTDxfName
1000
SCALE
1000
AcRTDxfName
1000
SCALE
1000
AcRTDxfName
1000
SCALE
1000
AcRTDxfName
1000
SCALE
1000
AcRTDxfName
1000
SCALE
1000
AcRTDxfName
1000
SCALE
1000
AcRTDxfName
1000
SCALE
1000
AcRTDxfName
1000
SCALE
1000
AcRTDxfName
1000
SCALE
1000
AcRTDxfName
1000
SCALE
  0
SCALE
  5
62B02
102
{ACAD_REACTORS
330
6285A
102
}
330
6285A
100
AcDbScale
 70
     0
300
1:20_9
140
1.0
141
0.02
290
     0
1001
ACAD
1000
AcRTDxfName
1000
SCALE
1000
AcRTDxfName
1000
SCALE
1000
AcRTDxfName
1000
SCALE
1000
AcRTDxfName
1000
SCALE
1000
AcRTDxfName
1000
SCALE
1000
AcRTDxfName
1000
SCALE
1000
AcRTDxfName
1000
SCALE
  0
SCALE
  5
62B03
102
{ACAD_REACTORS
330
6285A
102
}
330
6285A
100
AcDbScale
 70
     0
300
1:100_12
140
1.0
141
0.1
290
     0
1001
ACAD
1000
AcRTDxfName
1000
SCALE
1000
AcRTDxfName
1000
SCALE
1000
AcRTDxfName
1000
SCALE
1000
AcRTDxfName
1000
SCALE
1000
AcRTDxfName
1000
SCALE
1000
AcRTDxfName
1000
SCALE
1000
AcRTDxfName
1000
SCALE
  0
SCALE
  5
62B04
102
{ACAD_REACTORS
330
6285A
102
}
330
6285A
100
AcDbScale
 70
     0
300
1:2_3
140
1.0
141
2.0
290
     0
1001
ACAD
1000
AcRTDxfName
1000
SCALE
1000
AcRTDxfName
1000
SCALE
1000
AcRTDxfName
1000
SCALE
1000
AcRTDxfName
1000
SCALE
1000
AcRTDxfName
1000
SCALE
1000
AcRTDxfName
1000
SCALE
1000
AcRTDxfName
1000
SCALE
  0
SCALE
  5
62B05
102
{ACAD_REACTORS
330
6285A
102
}
330
6285A
100
AcDbScale
 70
     0
300
1:2_6_1_2
140
1.0
141
2.0
290
     0
1001
ACAD
1000
AcRTDxfName
1000
SCALE
1000
AcRTDxfName
1000
SCALE
1000
AcRTDxfName
1000
SCALE
1000
AcRTDxfName
1000
SCALE
1000
AcRTDxfName
1000
SCALE
1000
AcRTDxfName
1000
SCALE
1000
AcRTDxfName
1000
SCALE
  0
SCALE
  5
62B06
102
{ACAD_REACTORS
330
6285A
102
}
330
6285A
100
AcDbScale
 70
     0
300
1:2_5_3
140
1.0
141
2.0
290
     0
1001
ACAD
1000
AcRTDxfName
1000
SCALE
1000
AcRTDxfName
1000
SCALE
1000
AcRTDxfName
1000
SCALE
1000
AcRTDxfName
1000
SCALE
1000
AcRTDxfName
1000
SCALE
1000
AcRTDxfName
1000
SCALE
1000
AcRTDxfName
1000
SCALE
  0
SCALE
  5
62B07
102
{ACAD_REACTORS
330
6285A
102
}
330
6285A
100
AcDbScale
 70
     0
300
1:50_5_7
140
1.0
141
0.05
290
     0
1001
ACAD
1000
AcRTDxfName
1000
SCALE
1000
AcRTDxfName
1000
SCALE
1000
AcRTDxfName
1000
SCALE
1000
AcRTDxfName
1000
SCALE
1000
AcRTDxfName
1000
SCALE
1000
AcRTDxfName
1000
SCALE
1000
AcRTDxfName
1000
SCALE
  0
SCALE
  5
62B08
102
{ACAD_REACTORS
330
6285A
102
}
330
6285A
100
AcDbScale
 70
     0
300
1:100_1_3
140
1.0
141
100.0
290
     0
1001
ACAD
1000
AcRTDxfName
1000
SCALE
1000
AcRTDxfName
1000
SCALE
1000
AcRTDxfName
1000
SCALE
1000
AcRTDxfName
1000
SCALE
1000
AcRTDxfName
1000
SCALE
1000
AcRTDxfName
1000
SCALE
1000
AcRTDxfName
1000
SCALE
  0
SCALE
  5
62B21
102
{ACAD_REACTORS
330
6285A
102
}
330
6285A
100
AcDbScale
 70
     0
300
1:50_5_1
140
1.0
141
50.0
290
     0
1001
ACAD
1000
AcRTDxfName
1000
SCALE
1000
AcRTDxfName
1000
SCALE
1000
AcRTDxfName
1000
SCALE
1000
AcRTDxfName
1000
SCALE
1000
AcRTDxfName
1000
SCALE
1000
AcRTDxfName
1000
SCALE
1000
AcRTDxfName
1000
SCALE
  0
SCALE
  5
62B22
102
{ACAD_REACTORS
330
6285A
102
}
330
6285A
100
AcDbScale
 70
     0
300
1:5_5_3
140
1.0
141
5.0
290
     0
1001
ACAD
1000
AcRTDxfName
1000
SCALE
1000
AcRTDxfName
1000
SCALE
1000
AcRTDxfName
1000
SCALE
1000
AcRTDxfName
1000
SCALE
1000
AcRTDxfName
1000
SCALE
1000
AcRTDxfName
1000
SCALE
1000
AcRTDxfName
1000
SCALE
  0
SCALE
  5
62A57
102
{ACAD_REACTORS
330
6285A
102
}
330
6285A
100
AcDbScale
 70
     0
300
1:50_3_1
140
1.0
141
50.0
290
     0
1001
ACAD
1000
AcRTDxfName
1000
SCALE
1000
AcRTDxfName
1000
SCALE
1000
AcRTDxfName
1000
SCALE
1000
AcRTDxfName
1000
SCALE
1000
AcRTDxfName
1000
SCALE
1000
AcRTDxfName
1000
SCALE
1000
AcRTDxfName
1000
SCALE
  0
SCALE
  5
62B23
102
{ACAD_REACTORS
330
6285A
102
}
330
6285A
100
AcDbScale
 70
     0
300
1:5_6
140
1.0
141
5.0
290
     0
1001
ACAD
1000
AcRTDxfName
1000
SCALE
1000
AcRTDxfName
1000
SCALE
1000
AcRTDxfName
1000
SCALE
1000
AcRTDxfName
1000
SCALE
1000
AcRTDxfName
1000
SCALE
1000
AcRTDxfName
1000
SCALE
1000
AcRTDxfName
1000
SCALE
  0
SCALE
  5
62B24
102
{ACAD_REACTORS
330
6285A
102
}
330
6285A
100
AcDbScale
 70
     0
300
1:5_5_2_1
140
1.0
141
5.0
290
     0
1001
ACAD
1000
AcRTDxfName
1000
SCALE
1000
AcRTDxfName
1000
SCALE
1000
AcRTDxfName
1000
SCALE
1000
AcRTDxfName
1000
SCALE
1000
AcRTDxfName
1000
SCALE
1000
AcRTDxfName
1000
SCALE
1000
AcRTDxfName
1000
SCALE
  0
SCALE
  5
62B25
102
{ACAD_REACTORS
330
6285A
102
}
330
6285A
100
AcDbScale
 70
     0
300
1:2_7_1_1
140
1.0
141
2.0
290
     0
1001
ACAD
1000
AcRTDxfName
1000
SCALE
1000
AcRTDxfName
1000
SCALE
1000
AcRTDxfName
1000
SCALE
1000
AcRTDxfName
1000
SCALE
1000
AcRTDxfName
1000
SCALE
1000
AcRTDxfName
1000
SCALE
1000
AcRTDxfName
1000
SCALE
  0
SCALE
  5
62B26
102
{ACAD_REACTORS
330
6285A
102
}
330
6285A
100
AcDbScale
 70
     0
300
1:2_16
140
1.0
141
0.002
290
     0
1001
ACAD
1000
AcRTDxfName
1000
SCALE
1000
AcRTDxfName
1000
SCALE
1000
AcRTDxfName
1000
SCALE
1000
AcRTDxfName
1000
SCALE
1000
AcRTDxfName
1000
SCALE
1000
AcRTDxfName
1000
SCALE
1000
AcRTDxfName
1000
SCALE
  0
SCALE
  5
62A5F
102
{ACAD_REACTORS
330
6285A
102
}
330
6285A
100
AcDbScale
 70
     0
300
1:10_7_1_1
140
1.0
141
10.0
290
     0
1001
ACAD
1000
AcRTDxfName
1000
SCALE
1000
AcRTDxfName
1000
SCALE
1000
AcRTDxfName
1000
SCALE
1000
AcRTDxfName
1000
SCALE
1000
AcRTDxfName
1000
SCALE
1000
AcRTDxfName
1000
SCALE
1000
AcRTDxfName
1000
SCALE
  0
SCALE
  5
62B27
102
{ACAD_REACTORS
330
6285A
102
}
330
6285A
100
AcDbScale
 70
     0
300
1:20_1_4
140
1.0
141
20.0
290
     0
1001
ACAD
1000
AcRTDxfName
1000
SCALE
1000
AcRTDxfName
1000
SCALE
1000
AcRTDxfName
1000
SCALE
1000
AcRTDxfName
1000
SCALE
1000
AcRTDxfName
1000
SCALE
1000
AcRTDxfName
1000
SCALE
1000
AcRTDxfName
1000
SCALE
  0
SCALE
  5
62A62
102
{ACAD_REACTORS
330
6285A
102
}
330
6285A
100
AcDbScale
 70
     0
300
1:10_1_6
140
1.0
141
10.0
290
     0
1001
ACAD
1000
AcRTDxfName
1000
SCALE
1000
AcRTDxfName
1000
SCALE
1000
AcRTDxfName
1000
SCALE
1000
AcRTDxfName
1000
SCALE
1000
AcRTDxfName
1000
SCALE
1000
AcRTDxfName
1000
SCALE
1000
AcRTDxfName
1000
SCALE
  0
SCALE
  5
62B28
102
{ACAD_REACTORS
330
6285A
102
}
330
6285A
100
AcDbScale
 70
     0
300
1:5_5
140
1.0
141
5.0
290
     0
1001
ACAD
1000
AcRTDxfName
1000
SCALE
1000
AcRTDxfName
1000
SCALE
1000
AcRTDxfName
1000
SCALE
1000
AcRTDxfName
1000
SCALE
1000
AcRTDxfName
1000
SCALE
1000
AcRTDxfName
1000
SCALE
1000
AcRTDxfName
1000
SCALE
  0
SCALE
  5
62B29
102
{ACAD_REACTORS
330
6285A
102
}
330
6285A
100
AcDbScale
 70
     0
300
1:1_1_4
140
1.0
141
1.0
290
     0
1001
ACAD
1000
AcRTDxfName
1000
SCALE
1000
AcRTDxfName
1000
SCALE
1000
AcRTDxfName
1000
SCALE
1000
AcRTDxfName
1000
SCALE
1000
AcRTDxfName
1000
SCALE
1000
AcRTDxfName
1000
SCALE
1000
AcRTDxfName
1000
SCALE
  0
SCALE
  5
62B2A
102
{ACAD_REACTORS
330
6285A
102
}
330
6285A
100
AcDbScale
 70
     0
300
1:10_1_3
140
1.0
141
10.0
290
     0
1001
ACAD
1000
AcRTDxfName
1000
SCALE
1000
AcRTDxfName
1000
SCALE
1000
AcRTDxfName
1000
SCALE
1000
AcRTDxfName
1000
SCALE
1000
AcRTDxfName
1000
SCALE
1000
AcRTDxfName
1000
SCALE
1000
AcRTDxfName
1000
SCALE
  0
SCALE
  5
62B2B
102
{ACAD_REACTORS
330
6285A
102
}
330
6285A
100
AcDbScale
 70
     0
300
1:50_1
140
1.0
141
0.05
290
     0
1001
ACAD
1000
AcRTDxfName
1000
SCALE
1000
AcRTDxfName
1000
SCALE
1000
AcRTDxfName
1000
SCALE
1000
AcRTDxfName
1000
SCALE
1000
AcRTDxfName
1000
SCALE
1000
AcRTDxfName
1000
SCALE
1000
AcRTDxfName
1000
SCALE
1000
AcRTDxfName
1000
SCALE
1000
AcRTDxfName
1000
SCALE
1000
AcRTDxfName
1000
SCALE
  0
SCALE
  5
62ABA
102
{ACAD_REACTORS
330
6285A
102
}
330
6285A
100
AcDbScale
 70
     0
300
1:5_6_3
140
1.0
141
0.005
290
     0
1001
ACAD
1000
AcRTDxfName
1000
SCALE
1000
AcRTDxfName
1000
SCALE
1000
AcRTDxfName
1000
SCALE
1000
AcRTDxfName
1000
SCALE
1000
AcRTDxfName
1000
SCALE
1000
AcRTDxfName
1000
SCALE
1000
AcRTDxfName
1000
SCALE
  0
SCALE
  5
62B2C
102
{ACAD_REACTORS
330
6285A
102
}
330
6285A
100
AcDbScale
 70
     0
300
1:1_15
140
1.0
141
0.001
290
     0
1001
ACAD
1000
AcRTDxfName
1000
SCALE
1000
AcRTDxfName
1000
SCALE
1000
AcRTDxfName
1000
SCALE
1000
AcRTDxfName
1000
SCALE
1000
AcRTDxfName
1000
SCALE
1000
AcRTDxfName
1000
SCALE
1000
AcRTDxfName
1000
SCALE
  0
SCALE
  5
62B2D
102
{ACAD_REACTORS
330
6285A
102
}
330
6285A
100
AcDbScale
 70
     0
300
1:5_1
140
1.0
141
0.005
290
     0
1001
ACAD
1000
AcRTDxfName
1000
SCALE
1000
AcRTDxfName
1000
SCALE
1000
AcRTDxfName
1000
SCALE
1000
AcRTDxfName
1000
SCALE
1000
AcRTDxfName
1000
SCALE
1000
AcRTDxfName
1000
SCALE
1000
AcRTDxfName
1000
SCALE
1000
AcRTDxfName
1000
SCALE
1000
AcRTDxfName
1000
SCALE
1000
AcRTDxfName
1000
SCALE
  0
SCALE
  5
62B2E
102
{ACAD_REACTORS
330
6285A
102
}
330
6285A
100
AcDbScale
 70
     0
300
1:20_11
140
1.0
141
20.0
290
     0
1001
ACAD
1000
AcRTDxfName
1000
SCALE
1000
AcRTDxfName
1000
SCALE
1000
AcRTDxfName
1000
SCALE
1000
AcRTDxfName
1000
SCALE
1000
AcRTDxfName
1000
SCALE
1000
AcRTDxfName
1000
SCALE
1000
AcRTDxfName
1000
SCALE
  0
SCALE
  5
62B0A
102
{ACAD_REACTORS
330
6285A
102
}
330
6285A
100
AcDbScale
 70
     0
300
1:10_5_2_1
140
1.0
141
10.0
290
     0
1001
ACAD
1000
AcRTDxfName
1000
SCALE
1000
AcRTDxfName
1000
SCALE
1000
AcRTDxfName
1000
SCALE
1000
AcRTDxfName
1000
SCALE
1000
AcRTDxfName
1000
SCALE
1000
AcRTDxfName
1000
SCALE
1000
AcRTDxfName
1000
SCALE
  0
SCALE
  5
62B2F
102
{ACAD_REACTORS
330
6285A
102
}
330
6285A
100
AcDbScale
 70
     0
300
1:5_1_3
140
1.0
141
5.0
290
     0
1001
ACAD
1000
AcRTDxfName
1000
SCALE
1000
AcRTDxfName
1000
SCALE
1000
AcRTDxfName
1000
SCALE
1000
AcRTDxfName
1000
SCALE
1000
AcRTDxfName
1000
SCALE
1000
AcRTDxfName
1000
SCALE
1000
AcRTDxfName
1000
SCALE
  0
SCALE
  5
62B30
102
{ACAD_REACTORS
330
6285A
102
}
330
6285A
100
AcDbScale
 70
     0
300
1:50_2_1
140
1.0
141
50.0
290
     0
1001
ACAD
1000
AcRTDxfName
1000
SCALE
1000
AcRTDxfName
1000
SCALE
1000
AcRTDxfName
1000
SCALE
1000
AcRTDxfName
1000
SCALE
1000
AcRTDxfName
1000
SCALE
1000
AcRTDxfName
1000
SCALE
1000
AcRTDxfName
1000
SCALE
  0
SCALE
  5
62B31
102
{ACAD_REACTORS
330
6285A
102
}
330
6285A
100
AcDbScale
 70
     0
300
1:50_11
140
1.0
141
50.0
290
     0
1001
ACAD
1000
AcRTDxfName
1000
SCALE
1000
AcRTDxfName
1000
SCALE
1000
AcRTDxfName
1000
SCALE
1000
AcRTDxfName
1000
SCALE
1000
AcRTDxfName
1000
SCALE
1000
AcRTDxfName
1000
SCALE
1000
AcRTDxfName
1000
SCALE
  0
SCALE
  5
62A63
102
{ACAD_REACTORS
330
6285A
102
}
330
6285A
100
AcDbScale
 70
     0
300
1:50_5_4
140
1.0
141
0.05
290
     0
1001
ACAD
1000
AcRTDxfName
1000
SCALE
1000
AcRTDxfName
1000
SCALE
1000
AcRTDxfName
1000
SCALE
1000
AcRTDxfName
1000
SCALE
1000
AcRTDxfName
1000
SCALE
1000
AcRTDxfName
1000
SCALE
1000
AcRTDxfName
1000
SCALE
  0
SCALE
  5
62B32
102
{ACAD_REACTORS
330
6285A
102
}
330
6285A
100
AcDbScale
 70
     0
300
1:100_5_7
140
1.0
141
0.1
290
     0
1001
ACAD
1000
AcRTDxfName
1000
SCALE
1000
AcRTDxfName
1000
SCALE
1000
AcRTDxfName
1000
SCALE
1000
AcRTDxfName
1000
SCALE
1000
AcRTDxfName
1000
SCALE
1000
AcRTDxfName
1000
SCALE
1000
AcRTDxfName
1000
SCALE
  0
SCALE
  5
62B33
102
{ACAD_REACTORS
330
6285A
102
}
330
6285A
100
AcDbScale
 70
     0
300
1:100_6_1
140
1.0
141
100.0
290
     0
1001
ACAD
1000
AcRTDxfName
1000
SCALE
1000
AcRTDxfName
1000
SCALE
1000
AcRTDxfName
1000
SCALE
1000
AcRTDxfName
1000
SCALE
1000
AcRTDxfName
1000
SCALE
1000
AcRTDxfName
1000
SCALE
1000
AcRTDxfName
1000
SCALE
  0
SCALE
  5
62B34
102
{ACAD_REACTORS
330
6285A
102
}
330
6285A
100
AcDbScale
 70
     0
300
1:20_8
140
1.0
141
20.0
290
     0
1001
ACAD
1000
AcRTDxfName
1000
SCALE
1000
AcRTDxfName
1000
SCALE
1000
AcRTDxfName
1000
SCALE
1000
AcRTDxfName
1000
SCALE
1000
AcRTDxfName
1000
SCALE
1000
AcRTDxfName
1000
SCALE
1000
AcRTDxfName
1000
SCALE
  0
SCALE
  5
62ABB
102
{ACAD_REACTORS
330
6285A
102
}
330
6285A
100
AcDbScale
 70
     0
300
1:1_2_1
140
1.0
141
1.0
290
     0
1001
ACAD
1000
AcRTDxfName
1000
SCALE
1000
AcRTDxfName
1000
SCALE
1000
AcRTDxfName
1000
SCALE
1000
AcRTDxfName
1000
SCALE
1000
AcRTDxfName
1000
SCALE
1000
AcRTDxfName
1000
SCALE
1000
AcRTDxfName
1000
SCALE
  0
SCALE
  5
62B35
102
{ACAD_REACTORS
330
6285A
102
}
330
6285A
100
AcDbScale
 70
     0
300
1:20_10
140
1.0
141
20.0
290
     0
1001
ACAD
1000
AcRTDxfName
1000
SCALE
1000
AcRTDxfName
1000
SCALE
1000
AcRTDxfName
1000
SCALE
1000
AcRTDxfName
1000
SCALE
1000
AcRTDxfName
1000
SCALE
1000
AcRTDxfName
1000
SCALE
1000
AcRTDxfName
1000
SCALE
  0
SCALE
  5
62B36
102
{ACAD_REACTORS
330
6285A
102
}
330
6285A
100
AcDbScale
 70
     0
300
1:100_2_3
140
1.0
141
100.0
290
     0
1001
ACAD
1000
AcRTDxfName
1000
SCALE
1000
AcRTDxfName
1000
SCALE
1000
AcRTDxfName
1000
SCALE
1000
AcRTDxfName
1000
SCALE
1000
AcRTDxfName
1000
SCALE
1000
AcRTDxfName
1000
SCALE
1000
AcRTDxfName
1000
SCALE
  0
SCALE
  5
62B0B
102
{ACAD_REACTORS
330
6285A
102
}
330
6285A
100
AcDbScale
 70
     0
300
1:100_8
140
1.0
141
100.0
290
     0
1001
ACAD
1000
AcRTDxfName
1000
SCALE
1000
AcRTDxfName
1000
SCALE
1000
AcRTDxfName
1000
SCALE
1000
AcRTDxfName
1000
SCALE
1000
AcRTDxfName
1000
SCALE
1000
AcRTDxfName
1000
SCALE
1000
AcRTDxfName
1000
SCALE
  0
SCALE
  5
62B37
102
{ACAD_REACTORS
330
6285A
102
}
330
6285A
100
AcDbScale
 70
     0
300
1:20_5_2_2
140
1.0
141
20.0
290
     0
1001
ACAD
1000
AcRTDxfName
1000
SCALE
1000
AcRTDxfName
1000
SCALE
1000
AcRTDxfName
1000
SCALE
1000
AcRTDxfName
1000
SCALE
1000
AcRTDxfName
1000
SCALE
1000
AcRTDxfName
1000
SCALE
1000
AcRTDxfName
1000
SCALE
  0
SCALE
  5
62B38
102
{ACAD_REACTORS
330
6285A
102
}
330
6285A
100
AcDbScale
 70
     0
300
1:20_6_2
140
1.0
141
0.02
290
     0
1001
ACAD
1000
AcRTDxfName
1000
SCALE
1000
AcRTDxfName
1000
SCALE
1000
AcRTDxfName
1000
SCALE
1000
AcRTDxfName
1000
SCALE
1000
AcRTDxfName
1000
SCALE
1000
AcRTDxfName
1000
SCALE
1000
AcRTDxfName
1000
SCALE
  0
SCALE
  5
62B39
102
{ACAD_REACTORS
330
6285A
102
}
330
6285A
100
AcDbScale
 70
     0
300
1:5_8
140
1.0
141
5.0
290
     0
1001
ACAD
1000
AcRTDxfName
1000
SCALE
1000
AcRTDxfName
1000
SCALE
1000
AcRTDxfName
1000
SCALE
1000
AcRTDxfName
1000
SCALE
1000
AcRTDxfName
1000
SCALE
1000
AcRTDxfName
1000
SCALE
1000
AcRTDxfName
1000
SCALE
  0
SCALE
  5
62B3A
102
{ACAD_REACTORS
330
6285A
102
}
330
6285A
100
AcDbScale
 70
     0
300
1:20_6_3
140
1.0
141
0.02
290
     0
1001
ACAD
1000
AcRTDxfName
1000
SCALE
1000
AcRTDxfName
1000
SCALE
1000
AcRTDxfName
1000
SCALE
1000
AcRTDxfName
1000
SCALE
1000
AcRTDxfName
1000
SCALE
1000
AcRTDxfName
1000
SCALE
1000
AcRTDxfName
1000
SCALE
  0
SCALE
  5
62B3B
102
{ACAD_REACTORS
330
6285A
102
}
330
6285A
100
AcDbScale
 70
     0
300
1:50_6_1
140
1.0
141
50.0
290
     0
1001
ACAD
1000
AcRTDxfName
1000
SCALE
1000
AcRTDxfName
1000
SCALE
1000
AcRTDxfName
1000
SCALE
1000
AcRTDxfName
1000
SCALE
1000
AcRTDxfName
1000
SCALE
1000
AcRTDxfName
1000
SCALE
1000
AcRTDxfName
1000
SCALE
  0
SCALE
  5
62A64
102
{ACAD_REACTORS
330
6285A
102
}
330
6285A
100
AcDbScale
 70
     0
300
1:10_11
140
1.0
141
10.0
290
     0
1001
ACAD
1000
AcRTDxfName
1000
SCALE
1000
AcRTDxfName
1000
SCALE
1000
AcRTDxfName
1000
SCALE
1000
AcRTDxfName
1000
SCALE
1000
AcRTDxfName
1000
SCALE
1000
AcRTDxfName
1000
SCALE
1000
AcRTDxfName
1000
SCALE
  0
SCALE
  5
62B3C
102
{ACAD_REACTORS
330
6285A
102
}
330
6285A
100
AcDbScale
 70
     0
300
1:50_15
140
1.0
141
0.05
290
     0
1001
ACAD
1000
AcRTDxfName
1000
SCALE
1000
AcRTDxfName
1000
SCALE
1000
AcRTDxfName
1000
SCALE
1000
AcRTDxfName
1000
SCALE
1000
AcRTDxfName
1000
SCALE
1000
AcRTDxfName
1000
SCALE
1000
AcRTDxfName
1000
SCALE
  0
SCALE
  5
62B3D
102
{ACAD_REACTORS
330
6285A
102
}
330
6285A
100
AcDbScale
 70
     0
300
1:1_7_4
140
1.0
141
0.001
290
     0
1001
ACAD
1000
AcRTDxfName
1000
SCALE
1000
AcRTDxfName
1000
SCALE
1000
AcRTDxfName
1000
SCALE
1000
AcRTDxfName
1000
SCALE
1000
AcRTDxfName
1000
SCALE
1000
AcRTDxfName
1000
SCALE
1000
AcRTDxfName
1000
SCALE
  0
SCALE
  5
62ABC
102
{ACAD_REACTORS
330
6285A
102
}
330
6285A
100
AcDbScale
 70
     0
300
1:20_13
140
1.0
141
0.02
290
     0
1001
ACAD
1000
AcRTDxfName
1000
SCALE
1000
AcRTDxfName
1000
SCALE
1000
AcRTDxfName
1000
SCALE
1000
AcRTDxfName
1000
SCALE
1000
AcRTDxfName
1000
SCALE
1000
AcRTDxfName
1000
SCALE
1000
AcRTDxfName
1000
SCALE
  0
SCALE
  5
62B3E
102
{ACAD_REACTORS
330
6285A
102
}
330
6285A
100
AcDbScale
 70
     0
300
1:2_7_1
140
1.0
141
0.002
290
     0
1001
ACAD
1000
AcRTDxfName
1000
SCALE
1000
AcRTDxfName
1000
SCALE
1000
AcRTDxfName
1000
SCALE
1000
AcRTDxfName
1000
SCALE
1000
AcRTDxfName
1000
SCALE
1000
AcRTDxfName
1000
SCALE
1000
AcRTDxfName
1000
SCALE
  0
SCALE
  5
62B0C
102
{ACAD_REACTORS
330
6285A
102
}
330
6285A
100
AcDbScale
 70
     0
300
1:50_6_2
140
1.0
141
0.05
290
     0
1001
ACAD
1000
AcRTDxfName
1000
SCALE
1000
AcRTDxfName
1000
SCALE
1000
AcRTDxfName
1000
SCALE
1000
AcRTDxfName
1000
SCALE
1000
AcRTDxfName
1000
SCALE
1000
AcRTDxfName
1000
SCALE
1000
AcRTDxfName
1000
SCALE
  0
SCALE
  5
62B3F
102
{ACAD_REACTORS
330
6285A
102
}
330
6285A
100
AcDbScale
 70
     0
300
1:20_3
140
1.0
141
0.02
290
     0
1001
ACAD
1000
AcRTDxfName
1000
SCALE
1000
AcRTDxfName
1000
SCALE
1000
AcRTDxfName
1000
SCALE
1000
AcRTDxfName
1000
SCALE
1000
AcRTDxfName
1000
SCALE
1000
AcRTDxfName
1000
SCALE
1000
AcRTDxfName
1000
SCALE
  0
SCALE
  5
62B40
102
{ACAD_REACTORS
330
6285A
102
}
330
6285A
100
AcDbScale
 70
     0
300
1:5_10
140
1.0
141
5.0
290
     0
1001
ACAD
1000
AcRTDxfName
1000
SCALE
1000
AcRTDxfName
1000
SCALE
1000
AcRTDxfName
1000
SCALE
1000
AcRTDxfName
1000
SCALE
1000
AcRTDxfName
1000
SCALE
1000
AcRTDxfName
1000
SCALE
1000
AcRTDxfName
1000
SCALE
  0
SCALE
  5
62B41
102
{ACAD_REACTORS
330
6285A
102
}
330
6285A
100
AcDbScale
 70
     0
300
1:50_10
140
1.0
141
50.0
290
     0
1001
ACAD
1000
AcRTDxfName
1000
SCALE
1000
AcRTDxfName
1000
SCALE
1000
AcRTDxfName
1000
SCALE
1000
AcRTDxfName
1000
SCALE
1000
AcRTDxfName
1000
SCALE
1000
AcRTDxfName
1000
SCALE
1000
AcRTDxfName
1000
SCALE
  0
SCALE
  5
62B42
102
{ACAD_REACTORS
330
6285A
102
}
330
6285A
100
AcDbScale
 70
     0
300
1:10_6_3
140
1.0
141
0.01
290
     0
1001
ACAD
1000
AcRTDxfName
1000
SCALE
1000
AcRTDxfName
1000
SCALE
1000
AcRTDxfName
1000
SCALE
1000
AcRTDxfName
1000
SCALE
1000
AcRTDxfName
1000
SCALE
1000
AcRTDxfName
1000
SCALE
1000
AcRTDxfName
1000
SCALE
  0
SCALE
  5
62B43
102
{ACAD_REACTORS
330
6285A
102
}
330
6285A
100
AcDbScale
 70
     0
300
1:100_7_1
140
1.0
141
0.1
290
     0
1001
ACAD
1000
AcRTDxfName
1000
SCALE
1000
AcRTDxfName
1000
SCALE
1000
AcRTDxfName
1000
SCALE
1000
AcRTDxfName
1000
SCALE
1000
AcRTDxfName
1000
SCALE
1000
AcRTDxfName
1000
SCALE
1000
AcRTDxfName
1000
SCALE
  0
SCALE
  5
62B44
102
{ACAD_REACTORS
330
6285A
102
}
330
6285A
100
AcDbScale
 70
     0
300
1:100_10
140
1.0
141
100.0
290
     0
1001
ACAD
1000
AcRTDxfName
1000
SCALE
1000
AcRTDxfName
1000
SCALE
1000
AcRTDxfName
1000
SCALE
1000
AcRTDxfName
1000
SCALE
1000
AcRTDxfName
1000
SCALE
1000
AcRTDxfName
1000
SCALE
1000
AcRTDxfName
1000
SCALE
  0
SCALE
  5
62B45
102
{ACAD_REACTORS
330
6285A
102
}
330
6285A
100
AcDbScale
 70
     0
300
1:20_3_1
140
1.0
141
20.0
290
     0
1001
ACAD
1000
AcRTDxfName
1000
SCALE
1000
AcRTDxfName
1000
SCALE
1000
AcRTDxfName
1000
SCALE
1000
AcRTDxfName
1000
SCALE
1000
AcRTDxfName
1000
SCALE
1000
AcRTDxfName
1000
SCALE
1000
AcRTDxfName
1000
SCALE
  0
SCALE
  5
62A65
102
{ACAD_REACTORS
330
6285A
102
}
330
6285A
100
AcDbScale
 70
     0
300
1:1_16
140
1.0
141
0.001
290
     0
1001
ACAD
1000
AcRTDxfName
1000
SCALE
1000
AcRTDxfName
1000
SCALE
1000
AcRTDxfName
1000
SCALE
1000
AcRTDxfName
1000
SCALE
1000
AcRTDxfName
1000
SCALE
1000
AcRTDxfName
1000
SCALE
1000
AcRTDxfName
1000
SCALE
  0
SCALE
  5
62B46
102
{ACAD_REACTORS
330
6285A
102
}
330
6285A
100
AcDbScale
 70
     0
300
1:50_1_2
140
1.0
141
50.0
290
     0
1001
ACAD
1000
AcRTDxfName
1000
SCALE
1000
AcRTDxfName
1000
SCALE
1000
AcRTDxfName
1000
SCALE
1000
AcRTDxfName
1000
SCALE
1000
AcRTDxfName
1000
SCALE
1000
AcRTDxfName
1000
SCALE
1000
AcRTDxfName
1000
SCALE
1000
AcRTDxfName
1000
SCALE
1000
AcRTDxfName
1000
SCALE
1000
AcRTDxfName
1000
SCALE
  0
SCALE
  5
62ABD
102
{ACAD_REACTORS
330
6285A
102
}
330
6285A
100
AcDbScale
 70
     0
300
1:10_13
140
1.0
141
0.01
290
     0
1001
ACAD
1000
AcRTDxfName
1000
SCALE
1000
AcRTDxfName
1000
SCALE
1000
AcRTDxfName
1000
SCALE
1000
AcRTDxfName
1000
SCALE
1000
AcRTDxfName
1000
SCALE
1000
AcRTDxfName
1000
SCALE
1000
AcRTDxfName
1000
SCALE
  0
SCALE
  5
62B0D
102
{ACAD_REACTORS
330
6285A
102
}
330
6285A
100
AcDbScale
 70
     0
300
1:1_6_1
140
1.0
141
1.0
290
     0
1001
ACAD
1000
AcRTDxfName
1000
SCALE
1000
AcRTDxfName
1000
SCALE
1000
AcRTDxfName
1000
SCALE
1000
AcRTDxfName
1000
SCALE
1000
AcRTDxfName
1000
SCALE
1000
AcRTDxfName
1000
SCALE
1000
AcRTDxfName
1000
SCALE
  0
SCALE
  5
62B47
102
{ACAD_REACTORS
330
6285A
102
}
330
6285A
100
AcDbScale
 70
     0
300
1:1_11
140
1.0
141
1.0
290
     0
1001
ACAD
1000
AcRTDxfName
1000
SCALE
1000
AcRTDxfName
1000
SCALE
1000
AcRTDxfName
1000
SCALE
1000
AcRTDxfName
1000
SCALE
1000
AcRTDxfName
1000
SCALE
1000
AcRTDxfName
1000
SCALE
1000
AcRTDxfName
1000
SCALE
  0
SCALE
  5
62B48
102
{ACAD_REACTORS
330
6285A
102
}
330
6285A
100
AcDbScale
 70
     0
300
1:2_5_1
140
1.0
141
2.0
290
     0
1001
ACAD
1000
AcRTDxfName
1000
SCALE
1000
AcRTDxfName
1000
SCALE
1000
AcRTDxfName
1000
SCALE
1000
AcRTDxfName
1000
SCALE
1000
AcRTDxfName
1000
SCALE
1000
AcRTDxfName
1000
SCALE
1000
AcRTDxfName
1000
SCALE
  0
SCALE
  5
62B49
102
{ACAD_REACTORS
330
6285A
102
}
330
6285A
100
AcDbScale
 70
     0
300
1:10_8_1
140
1.0
141
0.01
290
     0
1001
ACAD
1000
AcRTDxfName
1000
SCALE
1000
AcRTDxfName
1000
SCALE
1000
AcRTDxfName
1000
SCALE
1000
AcRTDxfName
1000
SCALE
1000
AcRTDxfName
1000
SCALE
1000
AcRTDxfName
1000
SCALE
1000
AcRTDxfName
1000
SCALE
  0
SCALE
  5
62B4A
102
{ACAD_REACTORS
330
6285A
102
}
330
6285A
100
AcDbScale
 70
     0
300
1:5_5_4
140
1.0
141
5.0
290
     0
1001
ACAD
1000
AcRTDxfName
1000
SCALE
1000
AcRTDxfName
1000
SCALE
1000
AcRTDxfName
1000
SCALE
1000
AcRTDxfName
1000
SCALE
1000
AcRTDxfName
1000
SCALE
1000
AcRTDxfName
1000
SCALE
1000
AcRTDxfName
1000
SCALE
  0
SCALE
  5
62B4B
102
{ACAD_REACTORS
330
6285A
102
}
330
6285A
100
AcDbScale
 70
     0
300
1:20_4
140
1.0
141
20.0
290
     0
1001
ACAD
1000
AcRTDxfName
1000
SCALE
1000
AcRTDxfName
1000
SCALE
1000
AcRTDxfName
1000
SCALE
1000
AcRTDxfName
1000
SCALE
1000
AcRTDxfName
1000
SCALE
1000
AcRTDxfName
1000
SCALE
1000
AcRTDxfName
1000
SCALE
  0
SCALE
  5
62B4C
102
{ACAD_REACTORS
330
6285A
102
}
330
6285A
100
AcDbScale
 70
     0
300
1:100_5_4
140
1.0
141
100.0
290
     0
1001
ACAD
1000
AcRTDxfName
1000
SCALE
1000
AcRTDxfName
1000
SCALE
1000
AcRTDxfName
1000
SCALE
1000
AcRTDxfName
1000
SCALE
1000
AcRTDxfName
1000
SCALE
1000
AcRTDxfName
1000
SCALE
1000
AcRTDxfName
1000
SCALE
  0
SCALE
  5
62B4D
102
{ACAD_REACTORS
330
6285A
102
}
330
6285A
100
AcDbScale
 70
     0
300
1:100_1_2
140
1.0
141
100.0
290
     0
1001
ACAD
1000
AcRTDxfName
1000
SCALE
1000
AcRTDxfName
1000
SCALE
1000
AcRTDxfName
1000
SCALE
1000
AcRTDxfName
1000
SCALE
1000
AcRTDxfName
1000
SCALE
1000
AcRTDxfName
1000
SCALE
1000
AcRTDxfName
1000
SCALE
1000
AcRTDxfName
1000
SCALE
1000
AcRTDxfName
1000
SCALE
1000
AcRTDxfName
1000
SCALE
  0
SCALE
  5
62B4E
102
{ACAD_REACTORS
330
6285A
102
}
330
6285A
100
AcDbScale
 70
     0
300
1:5_1_5
140
1.0
141
5.0
290
     0
1001
ACAD
1000
AcRTDxfName
1000
SCALE
1000
AcRTDxfName
1000
SCALE
1000
AcRTDxfName
1000
SCALE
1000
AcRTDxfName
1000
SCALE
1000
AcRTDxfName
1000
SCALE
1000
AcRTDxfName
1000
SCALE
1000
AcRTDxfName
1000
SCALE
  0
SCALE
  5
62B4F
102
{ACAD_REACTORS
330
6285A
102
}
330
6285A
100
AcDbScale
 70
     0
300
1:2_14
140
1.0
141
0.002
290
     0
1001
ACAD
1000
AcRTDxfName
1000
SCALE
1000
AcRTDxfName
1000
SCALE
1000
AcRTDxfName
1000
SCALE
1000
AcRTDxfName
1000
SCALE
1000
AcRTDxfName
1000
SCALE
1000
AcRTDxfName
1000
SCALE
1000
AcRTDxfName
1000
SCALE
  0
SCALE
  5
62A66
102
{ACAD_REACTORS
330
6285A
102
}
330
6285A
100
AcDbScale
 70
     0
300
1:10_3
140
1.0
141
10.0
290
     0
1001
ACAD
1000
AcRTDxfName
1000
SCALE
1000
AcRTDxfName
1000
SCALE
1000
AcRTDxfName
1000
SCALE
1000
AcRTDxfName
1000
SCALE
1000
AcRTDxfName
1000
SCALE
1000
AcRTDxfName
1000
SCALE
1000
AcRTDxfName
1000
SCALE
  0
SCALE
  5
62B0E
102
{ACAD_REACTORS
330
6285A
102
}
330
6285A
100
AcDbScale
 70
     0
300
1:20_14
140
1.0
141
0.02
290
     0
1001
ACAD
1000
AcRTDxfName
1000
SCALE
1000
AcRTDxfName
1000
SCALE
1000
AcRTDxfName
1000
SCALE
1000
AcRTDxfName
1000
SCALE
1000
AcRTDxfName
1000
SCALE
1000
AcRTDxfName
1000
SCALE
1000
AcRTDxfName
1000
SCALE
  0
SCALE
  5
62ABE
102
{ACAD_REACTORS
330
6285A
102
}
330
6285A
100
AcDbScale
 70
     0
300
1:10_7_3
140
1.0
141
0.01
290
     0
1001
ACAD
1000
AcRTDxfName
1000
SCALE
1000
AcRTDxfName
1000
SCALE
1000
AcRTDxfName
1000
SCALE
1000
AcRTDxfName
1000
SCALE
1000
AcRTDxfName
1000
SCALE
1000
AcRTDxfName
1000
SCALE
1000
AcRTDxfName
1000
SCALE
  0
SCALE
  5
62B50
102
{ACAD_REACTORS
330
6285A
102
}
330
6285A
100
AcDbScale
 70
     0
300
1:10_6_1
140
1.0
141
10.0
290
     0
1001
ACAD
1000
AcRTDxfName
1000
SCALE
1000
AcRTDxfName
1000
SCALE
1000
AcRTDxfName
1000
SCALE
1000
AcRTDxfName
1000
SCALE
1000
AcRTDxfName
1000
SCALE
1000
AcRTDxfName
1000
SCALE
1000
AcRTDxfName
1000
SCALE
  0
SCALE
  5
62B51
102
{ACAD_REACTORS
330
6285A
102
}
330
6285A
100
AcDbScale
 70
     0
300
1:5_11
140
1.0
141
5.0
290
     0
1001
ACAD
1000
AcRTDxfName
1000
SCALE
1000
AcRTDxfName
1000
SCALE
1000
AcRTDxfName
1000
SCALE
1000
AcRTDxfName
1000
SCALE
1000
AcRTDxfName
1000
SCALE
1000
AcRTDxfName
1000
SCALE
1000
AcRTDxfName
1000
SCALE
  0
SCALE
  5
62B52
102
{ACAD_REACTORS
330
6285A
102
}
330
6285A
100
AcDbScale
 70
     0
300
1:1_3_1
140
1.0
141
1.0
290
     0
1001
ACAD
1000
AcRTDxfName
1000
SCALE
1000
AcRTDxfName
1000
SCALE
1000
AcRTDxfName
1000
SCALE
1000
AcRTDxfName
1000
SCALE
1000
AcRTDxfName
1000
SCALE
1000
AcRTDxfName
1000
SCALE
1000
AcRTDxfName
1000
SCALE
  0
SCALE
  5
62B53
102
{ACAD_REACTORS
330
6285A
102
}
330
6285A
100
AcDbScale
 70
     0
300
1:5_16
140
1.0
141
0.005
290
     0
1001
ACAD
1000
AcRTDxfName
1000
SCALE
1000
AcRTDxfName
1000
SCALE
1000
AcRTDxfName
1000
SCALE
1000
AcRTDxfName
1000
SCALE
1000
AcRTDxfName
1000
SCALE
1000
AcRTDxfName
1000
SCALE
1000
AcRTDxfName
1000
SCALE
  0
SCALE
  5
62B54
102
{ACAD_REACTORS
330
6285A
102
}
330
6285A
100
AcDbScale
 70
     0
300
1:50_8
140
1.0
141
50.0
290
     0
1001
ACAD
1000
AcRTDxfName
1000
SCALE
1000
AcRTDxfName
1000
SCALE
1000
AcRTDxfName
1000
SCALE
1000
AcRTDxfName
1000
SCALE
1000
AcRTDxfName
1000
SCALE
1000
AcRTDxfName
1000
SCALE
1000
AcRTDxfName
1000
SCALE
  0
SCALE
  5
62B55
102
{ACAD_REACTORS
330
6285A
102
}
330
6285A
100
AcDbScale
 70
     0
300
1:1_3
140
1.0
141
0.001
290
     0
1001
ACAD
1000
AcRTDxfName
1000
SCALE
1000
AcRTDxfName
1000
SCALE
1000
AcRTDxfName
1000
SCALE
1000
AcRTDxfName
1000
SCALE
1000
AcRTDxfName
1000
SCALE
1000
AcRTDxfName
1000
SCALE
1000
AcRTDxfName
1000
SCALE
  0
SCALE
  5
62B56
102
{ACAD_REACTORS
330
6285A
102
}
330
6285A
100
AcDbScale
 70
     0
300
1:1_1_3
140
1.0
141
1.0
290
     0
1001
ACAD
1000
AcRTDxfName
1000
SCALE
1000
AcRTDxfName
1000
SCALE
1000
AcRTDxfName
1000
SCALE
1000
AcRTDxfName
1000
SCALE
1000
AcRTDxfName
1000
SCALE
1000
AcRTDxfName
1000
SCALE
1000
AcRTDxfName
1000
SCALE
  0
SCALE
  5
62B57
102
{ACAD_REACTORS
330
6285A
102
}
330
6285A
100
AcDbScale
 70
     0
300
1:1_10
140
1.0
141
0.001
290
     0
1001
ACAD
1000
AcRTDxfName
1000
SCALE
1000
AcRTDxfName
1000
SCALE
1000
AcRTDxfName
1000
SCALE
1000
AcRTDxfName
1000
SCALE
1000
AcRTDxfName
1000
SCALE
1000
AcRTDxfName
1000
SCALE
1000
AcRTDxfName
1000
SCALE
  0
SCALE
  5
62B58
102
{ACAD_REACTORS
330
6285A
102
}
330
6285A
100
AcDbScale
 70
     0
300
1:20_1_1
140
1.0
141
20.0
290
     0
1001
ACAD
1000
AcRTDxfName
1000
SCALE
1000
AcRTDxfName
1000
SCALE
1000
AcRTDxfName
1000
SCALE
1000
AcRTDxfName
1000
SCALE
1000
AcRTDxfName
1000
SCALE
1000
AcRTDxfName
1000
SCALE
1000
AcRTDxfName
1000
SCALE
1000
AcRTDxfName
1000
SCALE
1000
AcRTDxfName
1000
SCALE
1000
AcRTDxfName
1000
SCALE
  0
SCALE
  5
6285B
102
{ACAD_REACTORS
330
6285A
102
}
330
6285A
100
AcDbScale
 70
     0
300
1:1
140
1.0
141
1.0
290
     1
  0
SCALE
  5
6285C
102
{ACAD_REACTORS
330
6285A
102
}
330
6285A
100
AcDbScale
 70
     0
300
1:2
140
1.0
141
2.0
290
     0
  0
SCALE
  5
6285D
102
{ACAD_REACTORS
330
6285A
102
}
330
6285A
100
AcDbScale
 70
     0
300
1:4
140
1.0
141
4.0
290
     0
  0
SCALE
  5
6285E
102
{ACAD_REACTORS
330
6285A
102
}
330
6285A
100
AcDbScale
 70
     0
300
1:5
140
1.0
141
5.0
290
     0
  0
SCALE
  5
6285F
102
{ACAD_REACTORS
330
6285A
102
}
330
6285A
100
AcDbScale
 70
     0
300
1:8
140
1.0
141
8.0
290
     0
  0
SCALE
  5
62860
102
{ACAD_REACTORS
330
6285A
102
}
330
6285A
100
AcDbScale
 70
     0
300
1:10
140
1.0
141
10.0
290
     0
  0
SCALE
  5
62861
102
{ACAD_REACTORS
330
6285A
102
}
330
6285A
100
AcDbScale
 70
     0
300
1:16
140
1.0
141
16.0
290
     0
  0
SCALE
  5
62862
102
{ACAD_REACTORS
330
6285A
102
}
330
6285A
100
AcDbScale
 70
     0
300
1:20
140
1.0
141
20.0
290
     0
  0
SCALE
  5
62863
102
{ACAD_REACTORS
330
6285A
102
}
330
6285A
100
AcDbScale
 70
     0
300
1:30
140
1.0
141
30.0
290
     0
  0
SCALE
  5
62864
102
{ACAD_REACTORS
330
6285A
102
}
330
6285A
100
AcDbScale
 70
     0
300
1:40
140
1.0
141
40.0
290
     0
  0
SCALE
  5
62865
102
{ACAD_REACTORS
330
6285A
102
}
330
6285A
100
AcDbScale
 70
     0
300
1:50
140
1.0
141
50.0
290
     0
  0
SCALE
  5
62866
102
{ACAD_REACTORS
330
6285A
102
}
330
6285A
100
AcDbScale
 70
     0
300
1:100
140
1.0
141
100.0
290
     0
  0
SCALE
  5
62867
102
{ACAD_REACTORS
330
6285A
102
}
330
6285A
100
AcDbScale
 70
     0
300
2:1
140
2.0
141
1.0
290
     0
  0
SCALE
  5
62868
102
{ACAD_REACTORS
330
6285A
102
}
330
6285A
100
AcDbScale
 70
     0
300
4:1
140
4.0
141
1.0
290
     0
  0
SCALE
  5
62869
102
{ACAD_REACTORS
330
6285A
102
}
330
6285A
100
AcDbScale
 70
     0
300
8:1
140
8.0
141
1.0
290
     0
  0
SCALE
  5
6286A
102
{ACAD_REACTORS
330
6285A
102
}
330
6285A
100
AcDbScale
 70
     0
300
10:1
140
10.0
141
1.0
290
     0
  0
SCALE
  5
6286B
102
{ACAD_REACTORS
330
6285A
102
}
330
6285A
100
AcDbScale
 70
     0
300
100:1
140
100.0
141
1.0
290
     0
  0
SCALE
  5
6286C
102
{ACAD_REACTORS
330
6285A
102
}
330
6285A
100
AcDbScale
 70
     0
300
1/128" = 1'-0"
140
0.0078125
141
12.0
290
     0
  0
SCALE
  5
6286D
102
{ACAD_REACTORS
330
6285A
102
}
330
6285A
100
AcDbScale
 70
     0
300
1/64" = 1'-0"
140
0.015625
141
12.0
290
     0
  0
SCALE
  5
6286E
102
{ACAD_REACTORS
330
6285A
102
}
330
6285A
100
AcDbScale
 70
     0
300
1/32" = 1'-0"
140
0.03125
141
12.0
290
     0
  0
SCALE
  5
6286F
102
{ACAD_REACTORS
330
6285A
102
}
330
6285A
100
AcDbScale
 70
     0
300
1/16" = 1'-0"
140
0.0625
141
12.0
290
     0
  0
SCALE
  5
62870
102
{ACAD_REACTORS
330
6285A
102
}
330
6285A
100
AcDbScale
 70
     0
300
3/32" = 1'-0"
140
0.09375
141
12.0
290
     0
  0
SCALE
  5
62871
102
{ACAD_REACTORS
330
6285A
102
}
330
6285A
100
AcDbScale
 70
     0
300
1/8" = 1'-0"
140
0.125
141
12.0
290
     0
  0
SCALE
  5
62872
102
{ACAD_REACTORS
330
6285A
102
}
330
6285A
100
AcDbScale
 70
     0
300
3/16" = 1'-0"
140
0.1875
141
12.0
290
     0
  0
SCALE
  5
62873
102
{ACAD_REACTORS
330
6285A
102
}
330
6285A
100
AcDbScale
 70
     0
300
1/4" = 1'-0"
140
0.25
141
12.0
290
     0
  0
SCALE
  5
62874
102
{ACAD_REACTORS
330
6285A
102
}
330
6285A
100
AcDbScale
 70
     0
300
3/8" = 1'-0"
140
0.375
141
12.0
290
     0
  0
SCALE
  5
62875
102
{ACAD_REACTORS
330
6285A
102
}
330
6285A
100
AcDbScale
 70
     0
300
1/2" = 1'-0"
140
0.5
141
12.0
290
     0
  0
SCALE
  5
62876
102
{ACAD_REACTORS
330
6285A
102
}
330
6285A
100
AcDbScale
 70
     0
300
3/4" = 1'-0"
140
0.75
141
12.0
290
     0
  0
SCALE
  5
62877
102
{ACAD_REACTORS
330
6285A
102
}
330
6285A
100
AcDbScale
 70
     0
300
1" = 1'-0"
140
1.0
141
12.0
290
     0
  0
SCALE
  5
62878
102
{ACAD_REACTORS
330
6285A
102
}
330
6285A
100
AcDbScale
 70
     0
300
1-1/2" = 1'-0"
140
1.5
141
12.0
290
     0
  0
SCALE
  5
62879
102
{ACAD_REACTORS
330
6285A
102
}
330
6285A
100
AcDbScale
 70
     0
300
3" = 1'-0"
140
3.0
141
12.0
290
     0
  0
SCALE
  5
6287A
102
{ACAD_REACTORS
330
6285A
102
}
330
6285A
100
AcDbScale
 70
     0
300
6" = 1'-0"
140
6.0
141
12.0
290
     0
  0
SCALE
  5
6287B
102
{ACAD_REACTORS
330
6285A
102
}
330
6285A
100
AcDbScale
 70
     0
300
1'-0" = 1'-0"
140
12.0
141
12.0
290
     0
  0
TABLESTYLE
  5
62859
102
{ACAD_XDICTIONARY
360
628A2
102
}
102
{ACAD_REACTORS
330
62858
102
}
330
62858
100
AcDbTableStyle
  3
Standard
 70
     0
 71
     0
 40
0.06
 41
0.06
280
     0
281
     0
  7
STANDARD
140
0.18
170
     2
 62
     0
 63
     7
283
     0
 90
      512
 91
        0
  1

274
    -2
284
     1
 64
     0
275
    -2
285
     1
 65
     0
276
    -2
286
     1
 66
     0
277
    -2
287
     1
 67
     0
278
    -2
288
     1
 68
     0
279
    -2
289
     1
 69
     0
  7
STANDARD
140
0.25
170
     5
 62
     0
 63
     7
283
     0
 90
      512
 91
        0
  1

274
    -2
284
     1
 64
     0
275
    -2
285
     1
 65
     0
276
    -2
286
     1
 66
     0
277
    -2
287
     1
 67
     0
278
    -2
288
     1
 68
     0
279
    -2
289
     1
 69
     0
  7
STANDARD
140
0.18
170
     5
 62
     0
 63
     7
283
     0
 90
      512
 91
        0
  1

274
    -2
284
     1
 64
     0
275
    -2
285
     1
 65
     0
276
    -2
286
     1
 66
     0
277
    -2
287
     1
 67
     0
278
    -2
288
     1
 68
     0
279
    -2
289
     1
 69
     0
  0
VISUALSTYLE
  5
6284C
102
{ACAD_REACTORS
330
62846
102
}
330
62846
100
AcDbVisualStyle
  2
2dWireframe
 70
     4
 71
     0
 72
     2
 73
     0
 90
        0
 40
-0.6
 41
-30.0
 62
     5
 63
     7
 74
     1
 91
        4
 64
     7
 65
   257
 75
     1
175
     1
 42
1.0
 92
        0
 66
   257
 43
1.0
 76
     1
 77
     6
 78
     2
 67
     7
 79
     5
170
     0
171
     0
290
     0
174
     0
 93
        1
 44
0.0
173
     0
291
     0
 45
0.0
  0
VISUALSTYLE
  5
6284E
102
{ACAD_REACTORS
330
62846
102
}
330
62846
100
AcDbVisualStyle
  2
3D Hidden
 70
     6
 71
     1
 72
     2
 73
     2
 90
        0
 40
-0.6
 41
-30.0
 62
     5
 63
     7
 74
     2
 91
        2
 64
     7
 65
   257
 75
     2
175
     1
 42
40.0
 92
        0
 66
   257
 43
1.0
 76
     1
 77
     6
 78
     2
 67
     7
 79
     3
170
     0
171
     0
290
     0
174
     0
 93
        1
 44
0.0
173
     0
291
     0
 45
0.0
  0
VISUALSTYLE
  5
6284D
102
{ACAD_REACTORS
330
62846
102
}
330
62846
100
AcDbVisualStyle
  2
3dWireframe
 70
     5
 71
     0
 72
     2
 73
     0
 90
        0
 40
-0.6
 41
-30.0
 62
     5
 63
     7
 74
     1
 91
        4
 64
     7
 65
   257
 75
     1
175
     1
 42
1.0
 92
        0
 66
   257
 43
1.0
 76
     1
 77
     6
 78
     2
 67
     7
 79
     5
170
     0
171
     0
290
     0
174
     0
 93
        1
 44
0.0
173
     0
291
     0
 45
0.0
  0
VISUALSTYLE
  5
6284B
102
{ACAD_REACTORS
330
62846
102
}
330
62846
100
AcDbVisualStyle
  2
Basic
 70
     7
 71
     1
 72
     0
 73
     1
 90
        0
 40
-0.6
 41
-30.0
 62
     5
 63
     7
 74
     0
 91
        4
 64
     7
 65
   257
 75
     1
175
     1
 42
1.0
 92
        8
 66
     7
 43
1.0
 76
     1
 77
     6
 78
     2
 67
     7
 79
     5
170
     0
171
     0
290
     0
174
     0
 93
        1
 44
0.0
173
     0
291
     1
 45
0.0
  0
VISUALSTYLE
  5
62852
102
{ACAD_REACTORS
330
62846
102
}
330
62846
100
AcDbVisualStyle
  2
Brighten
 70
    12
 71
     2
 72
     2
 73
     0
 90
        0
 40
-0.6
 41
-30.0
 62
     5
 63
     7
 74
     1
 91
        4
 64
     7
 65
   257
 75
     1
175
     1
 42
1.0
 92
        8
 66
     7
 43
1.0
 76
     1
 77
     6
 78
     2
 67
     7
 79
     5
170
     0
171
     0
290
     0
174
     0
 93
        1
 44
50.0
173
     0
291
     1
 45
0.0
  0
VISUALSTYLE
  5
62856
102
{ACAD_REACTORS
330
62846
102
}
330
62846
100
AcDbVisualStyle
  2
ColorChange
 70
    16
 71
     2
 72
     2
 73
     3
 90
        0
 40
-0.6
 41
-30.0
 62
     5
 63
     8
 74
     1
 91
        4
 64
     7
 65
   257
 75
     1
175
     1
 42
1.0
 92
        8
 66
     8
 43
1.0
 76
     1
 77
     6
 78
     2
 67
     7
 79
     5
170
     0
171
     0
290
     0
174
     0
 93
        1
 44
0.0
173
     0
291
     1
 45
0.0
  0
VISUALSTYLE
  5
6284F
102
{ACAD_REACTORS
330
62846
102
}
330
62846
100
AcDbVisualStyle
  2
Conceptual
 70
     9
 71
     3
 72
     2
 73
     0
 90
        0
 40
-0.6
 41
-30.0
 62
     5
 63
     7
 74
     2
 91
        2
 64
     7
 65
   257
 75
     1
175
     1
 42
40.0
 92
        8
 66
     7
 43
1.0
 76
     1
 77
     6
 78
     2
 67
     7
 79
     3
170
     0
171
     0
290
     0
174
     0
 93
        1
 44
0.0
173
     0
291
     0
 45
0.0
  0
VISUALSTYLE
  5
62851
102
{ACAD_REACTORS
330
62846
102
}
330
62846
100
AcDbVisualStyle
  2
Dim
 70
    11
 71
     2
 72
     2
 73
     0
 90
        0
 40
-0.6
 41
-30.0
 62
     5
 63
     7
 74
     1
 91
        4
 64
     7
 65
   257
 75
     1
175
     1
 42
1.0
 92
        8
 66
     7
 43
1.0
 76
     1
 77
     6
 78
     2
 67
     7
 79
     5
170
     0
171
     0
290
     0
174
     0
 93
        1
 44
-50.0
173
     0
291
     1
 45
0.0
  0
VISUALSTYLE
  5
62855
102
{ACAD_REACTORS
330
62846
102
}
330
62846
100
AcDbVisualStyle
  2
Facepattern
 70
    15
 71
     2
 72
     2
 73
     0
 90
        0
 40
-0.6
 41
-30.0
 62
     5
 63
     7
 74
     1
 91
        4
 64
     7
 65
   257
 75
     1
175
     1
 42
1.0
 92
        8
 66
     7
 43
1.0
 76
     1
 77
     6
 78
     2
 67
     7
 79
     5
170
     0
171
     0
290
     0
174
     0
 93
        1
 44
0.0
173
     0
291
     1
 45
0.0
  0
VISUALSTYLE
  5
62847
102
{ACAD_REACTORS
330
62846
102
}
330
62846
100
AcDbVisualStyle
  2
Flat
 70
     0
 71
     2
 72
     1
 73
     1
 90
        2
 40
-0.6
 41
30.0
 62
     5
 63
     7
 74
     0
 91
        4
 64
     7
 65
   257
 75
     1
175
     1
 42
1.0
 92
        8
 66
     7
 43
1.0
 76
     1
 77
     6
 78
     2
 67
     7
 79
     5
170
     0
171
     0
290
     0
174
     0
 93
       13
 44
0.0
173
     0
291
     1
 45
0.0
  0
VISUALSTYLE
  5
62848
102
{ACAD_REACTORS
330
62846
102
}
330
62846
100
AcDbVisualStyle
  2
FlatWithEdges
 70
     1
 71
     2
 72
     1
 73
     1
 90
        2
 40
-0.6
 41
30.0
 62
     5
 63
     7
 74
     1
 91
        4
 64
     7
 65
   257
 75
     1
175
     1
 42
1.0
 92
        0
 66
   257
 43
1.0
 76
     1
 77
     6
 78
     2
 67
     7
 79
     5
170
     0
171
     0
290
     0
174
     0
 93
       13
 44
0.0
173
     0
291
     1
 45
0.0
  0
VISUALSTYLE
  5
62849
102
{ACAD_REACTORS
330
62846
102
}
330
62846
100
AcDbVisualStyle
  2
Gouraud
 70
     2
 71
     2
 72
     2
 73
     1
 90
        2
 40
-0.6
 41
30.0
 62
     5
 63
     7
 74
     0
 91
        4
 64
     7
 65
   257
 75
     1
175
     1
 42
1.0
 92
        0
 66
     7
 43
1.0
 76
     1
 77
     6
 78
     2
 67
     7
 79
     5
170
     0
171
     0
290
     0
174
     0
 93
       13
 44
0.0
173
     0
291
     1
 45
0.0
  0
VISUALSTYLE
  5
6284A
102
{ACAD_REACTORS
330
62846
102
}
330
62846
100
AcDbVisualStyle
  2
GouraudWithEdges
 70
     3
 71
     2
 72
     2
 73
     1
 90
        2
 40
-0.6
 41
30.0
 62
     5
 63
     7
 74
     1
 91
        4
 64
     7
 65
   257
 75
     1
175
     1
 42
1.0
 92
        0
 66
   257
 43
1.0
 76
     1
 77
     6
 78
     2
 67
     7
 79
     5
170
     0
171
     0
290
     0
174
     0
 93
       13
 44
0.0
173
     0
291
     1
 45
0.0
  0
VISUALSTYLE
  5
62854
102
{ACAD_REACTORS
330
62846
102
}
330
62846
100
AcDbVisualStyle
  2
Linepattern
 70
    14
 71
     2
 72
     2
 73
     0
 90
        0
 40
-0.6
 41
-30.0
 62
     5
 63
     7
 74
     1
 91
        4
 64
     7
 65
   257
 75
     7
175
     7
 42
1.0
 92
        8
 66
     7
 43
1.0
 76
     1
 77
     6
 78
     2
 67
     7
 79
     5
170
     0
171
     0
290
     0
174
     0
 93
        1
 44
0.0
173
     0
291
     1
 45
0.0
  0
VISUALSTYLE
  5
62850
102
{ACAD_REACTORS
330
62846
102
}
330
62846
100
AcDbVisualStyle
  2
Realistic
 70
     8
 71
     2
 72
     2
 73
     0
 90
        0
 40
-0.6
 41
-30.0
 62
     5
 63
     7
 74
     1
 91
        0
 64
     7
 65
   257
 75
     1
175
     1
 42
1.0
 92
        8
 66
     8
 43
1.0
 76
     1
 77
     6
 78
     2
 67
     7
 79
     5
170
     0
171
     0
290
     0
174
     0
 93
       13
 44
0.0
173
     0
291
     0
 45
0.0
  0
VISUALSTYLE
  5
62853
102
{ACAD_REACTORS
330
62846
102
}
330
62846
100
AcDbVisualStyle
  2
Thicken
 70
    13
 71
     2
 72
     2
 73
     0
 90
        0
 40
-0.6
 41
-30.0
 62
     5
 63
     7
 74
     1
 91
        4
 64
     7
 65
   257
 75
     1
175
     1
 42
1.0
 92
       12
 66
     7
 43
1.0
 76
     1
 77
     6
 78
     2
 67
     7
 79
     5
170
     0
171
     0
290
     0
174
     0
 93
        1
 44
0.0
173
     0
291
     1
 45
0.0
  0
DICTIONARYVAR
  5
6289E
102
{ACAD_REACTORS
330
6289B
102
}
330
6289B
100
DictionaryVariables
280
     0
  1
1:1
  0
DICTIONARYVAR
  5
6289D
102
{ACAD_REACTORS
330
6289B
102
}
330
6289B
100
DictionaryVariables
280
     0
  1
STANDARD
  0
DICTIONARYVAR
  5
6289C
102
{ACAD_REACTORS
330
6289B
102
}
330
6289B
100
DictionaryVariables
280
     0
  1
STANDARD
  0
DICTIONARYVAR
  5
628A1
102
{ACAD_REACTORS
330
6289B
102
}
330
6289B
100
DictionaryVariables
280
     0
  1
1
  0
DICTIONARYVAR
  5
628A0
102
{ACAD_REACTORS
330
6289B
102
}
330
6289B
100
DictionaryVariables
280
     0
  1
0
  0
DICTIONARYVAR
  5
695DA
102
{ACAD_REACTORS
330
6289B
102
}
330
6289B
100
DictionaryVariables
280
     0
  1
0
  0
DICTIONARYVAR
  5
695D9
102
{ACAD_REACTORS
330
6289B
102
}
330
6289B
100
DictionaryVariables
280
     0
  1
0
  0
DICTIONARYVAR
  5
6289F
102
{ACAD_REACTORS
330
6289B
102
}
330
6289B
100
DictionaryVariables
280
     0
  1
127
  0
DICTIONARY
  5
62837
330
62836
100
AcDbDictionary
280
     1
281
     1
  3
ACAD_XREC_ROUNDTRIP
360
628A7
  3
BUMPTILE
360
62839
  3
DIFFUSETILE
360
62838
  3
OPACITYTILE
360
6283C
  3
REFLECTIONTILE
360
6283B
  3
REFRACTIONTILE
360
6283D
  3
SPECULARTILE
360
6283A
  0
DICTIONARY
  5
6282F
330
6282E
100
AcDbDictionary
280
     1
281
     1
  3
ACAD_XREC_ROUNDTRIP
360
628A6
  3
BUMPTILE
360
62831
  3
DIFFUSETILE
360
62830
  3
OPACITYTILE
360
62834
  3
REFLECTIONTILE
360
62833
  3
REFRACTIONTILE
360
62835
  3
SPECULARTILE
360
62832
  0
DICTIONARY
  5
6283F
330
6283E
100
AcDbDictionary
280
     1
281
     1
  3
ACAD_XREC_ROUNDTRIP
360
628A8
  3
BUMPTILE
360
62841
  3
DIFFUSETILE
360
62840
  3
OPACITYTILE
360
62844
  3
REFLECTIONTILE
360
62843
  3
REFRACTIONTILE
360
62845
  3
SPECULARTILE
360
62842
  0
DICTIONARY
  5
628A2
330
62859
100
AcDbDictionary
280
     1
281
     1
  3
ACAD_ROUNDTRIP_2008_TABLESTYLE_CELLSTYLEMAP
360
6960E
  0
XRECORD
  5
628A7
102
{ACAD_REACTORS
330
62837
102
}
330
62837
100
AcDbXrecord
280
     1
102
MATERIAL
148
0.0
149
0.0
149
0.0
 93
        0
 94
      127
282
     0
 72
     0
 77
     0
171
     0
175
     0
179
     0
273
     0
  0
XRECORD
  5
62839
102
{ACAD_REACTORS
330
62837
102
}
330
62837
100
AcDbXrecord
280
     1
270
     1
271
     1
  0
XRECORD
  5
62838
102
{ACAD_REACTORS
330
62837
102
}
330
62837
100
AcDbXrecord
280
     1
270
     1
271
     1
  0
XRECORD
  5
6283C
102
{ACAD_REACTORS
330
62837
102
}
330
62837
100
AcDbXrecord
280
     1
270
     1
271
     1
  0
XRECORD
  5
6283B
102
{ACAD_REACTORS
330
62837
102
}
330
62837
100
AcDbXrecord
280
     1
270
     1
271
     1
  0
XRECORD
  5
6283D
102
{ACAD_REACTORS
330
62837
102
}
330
62837
100
AcDbXrecord
280
     1
270
     1
271
     1
  0
XRECORD
  5
6283A
102
{ACAD_REACTORS
330
62837
102
}
330
62837
100
AcDbXrecord
280
     1
270
     1
271
     1
  0
XRECORD
  5
628A6
102
{ACAD_REACTORS
330
6282F
102
}
330
6282F
100
AcDbXrecord
280
     1
102
MATERIAL
148
0.0
149
0.0
149
0.0
 93
        0
 94
      127
282
     0
 72
     0
 77
     0
171
     0
175
     0
179
     0
273
     0
  0
XRECORD
  5
62831
102
{ACAD_REACTORS
330
6282F
102
}
330
6282F
100
AcDbXrecord
280
     1
270
     1
271
     1
  0
XRECORD
  5
62830
102
{ACAD_REACTORS
330
6282F
102
}
330
6282F
100
AcDbXrecord
280
     1
270
     1
271
     1
  0
XRECORD
  5
62834
102
{ACAD_REACTORS
330
6282F
102
}
330
6282F
100
AcDbXrecord
280
     1
270
     1
271
     1
  0
XRECORD
  5
62833
102
{ACAD_REACTORS
330
6282F
102
}
330
6282F
100
AcDbXrecord
280
     1
270
     1
271
     1
  0
XRECORD
  5
62835
102
{ACAD_REACTORS
330
6282F
102
}
330
6282F
100
AcDbXrecord
280
     1
270
     1
271
     1
  0
XRECORD
  5
62832
102
{ACAD_REACTORS
330
6282F
102
}
330
6282F
100
AcDbXrecord
280
     1
270
     1
271
     1
  0
XRECORD
  5
628A8
102
{ACAD_REACTORS
330
6283F
102
}
330
6283F
100
AcDbXrecord
280
     1
102
MATERIAL
148
0.0
149
0.0
149
0.0
 93
        0
 94
      127
282
     0
 72
     0
 77
     0
171
     0
175
     0
179
     0
273
     0
  0
XRECORD
  5
62841
102
{ACAD_REACTORS
330
6283F
102
}
330
6283F
100
AcDbXrecord
280
     1
270
     1
271
     1
  0
XRECORD
  5
62840
102
{ACAD_REACTORS
330
6283F
102
}
330
6283F
100
AcDbXrecord
280
     1
270
     1
271
     1
  0
XRECORD
  5
62844
102
{ACAD_REACTORS
330
6283F
102
}
330
6283F
100
AcDbXrecord
280
     1
270
     1
271
     1
  0
XRECORD
  5
62843
102
{ACAD_REACTORS
330
6283F
102
}
330
6283F
100
AcDbXrecord
280
     1
270
     1
271
     1
  0
XRECORD
  5
62845
102
{ACAD_REACTORS
330
6283F
102
}
330
6283F
100
AcDbXrecord
280
     1
270
     1
271
     1
  0
XRECORD
  5
62842
102
{ACAD_REACTORS
330
6283F
102
}
330
6283F
100
AcDbXrecord
280
     1
270
     1
271
     1
  0
CELLSTYLEMAP
  5
6960E
102
{ACAD_REACTORS
330
628A2
102
}
330
628A2
100
AcDbCellStyleMap
 90
        3
300
CELLSTYLE
  1
TABLEFORMAT_BEGIN
 90
        5
170
     1
 91
        0
 92
    32768
 62
   257
 93
        1
300
CONTENTFORMAT
  1
CONTENTFORMAT_BEGIN
 90
        0
 91
        0
 92
      512
 93
        0
300

 40
0.0
140
1.0
 94
        5
 62
     0
340
201
144
0.25
309
CONTENTFORMAT_END
171
     1
301
MARGIN
  1
CELLMARGIN_BEGIN
 40
0.06
 40
0.06
 40
0.06
 40
0.06
 40
0.18
 40
0.18
309
CELLMARGIN_END
 94
        6
 95
        1
302
GRIDFORMAT
  1
GRIDFORMAT_BEGIN
 90
        0
 91
        1
 62
     0
 92
       -2
340
0
 93
        0
 40
0.045
309
GRIDFORMAT_END
 95
        2
302
GRIDFORMAT
  1
GRIDFORMAT_BEGIN
 90
        0
 91
        1
 62
     0
 92
       -2
340
0
 93
        0
 40
0.045
309
GRIDFORMAT_END
 95
        4
302
GRIDFORMAT
  1
GRIDFORMAT_BEGIN
 90
        0
 91
        1
 62
     0
 92
       -2
340
0
 93
        0
 40
0.045
309
GRIDFORMAT_END
 95
        8
302
GRIDFORMAT
  1
GRIDFORMAT_BEGIN
 90
        0
 91
        1
 62
     0
 92
       -2
340
0
 93
        0
 40
0.045
309
GRIDFORMAT_END
 95
       16
302
GRIDFORMAT
  1
GRIDFORMAT_BEGIN
 90
        0
 91
        1
 62
     0
 92
       -2
340
0
 93
        0
 40
0.045
309
GRIDFORMAT_END
 95
       32
302
GRIDFORMAT
  1
GRIDFORMAT_BEGIN
 90
        0
 91
        1
 62
     0
 92
       -2
340
0
 93
        0
 40
0.045
309
GRIDFORMAT_END
309
TABLEFORMAT_END
  1
CELLSTYLE_BEGIN
 90
        1
 91
        1
300
_TITLE
309
CELLSTYLE_END
300
CELLSTYLE
  1
TABLEFORMAT_BEGIN
 90
        5
170
     1
 91
        0
 92
        0
 62
   257
 93
        1
300
CONTENTFORMAT
  1
CONTENTFORMAT_BEGIN
 90
        0
 91
        0
 92
      512
 93
        0
300

 40
0.0
140
1.0
 94
        5
 62
     0
340
201
144
0.18
309
CONTENTFORMAT_END
171
     1
301
MARGIN
  1
CELLMARGIN_BEGIN
 40
0.06
 40
0.06
 40
0.06
 40
0.06
 40
0.18
 40
0.18
309
CELLMARGIN_END
 94
        6
 95
        1
302
GRIDFORMAT
  1
GRIDFORMAT_BEGIN
 90
        0
 91
        1
 62
     0
 92
       -2
340
0
 93
        0
 40
0.045
309
GRIDFORMAT_END
 95
        2
302
GRIDFORMAT
  1
GRIDFORMAT_BEGIN
 90
        0
 91
        1
 62
     0
 92
       -2
340
0
 93
        0
 40
0.045
309
GRIDFORMAT_END
 95
        4
302
GRIDFORMAT
  1
GRIDFORMAT_BEGIN
 90
        0
 91
        1
 62
     0
 92
       -2
340
0
 93
        0
 40
0.045
309
GRIDFORMAT_END
 95
        8
302
GRIDFORMAT
  1
GRIDFORMAT_BEGIN
 90
        0
 91
        1
 62
     0
 92
       -2
340
0
 93
        0
 40
0.045
309
GRIDFORMAT_END
 95
       16
302
GRIDFORMAT
  1
GRIDFORMAT_BEGIN
 90
        0
 91
        1
 62
     0
 92
       -2
340
0
 93
        0
 40
0.045
309
GRIDFORMAT_END
 95
       32
302
GRIDFORMAT
  1
GRIDFORMAT_BEGIN
 90
        0
 91
        1
 62
     0
 92
       -2
340
0
 93
        0
 40
0.045
309
GRIDFORMAT_END
309
TABLEFORMAT_END
  1
CELLSTYLE_BEGIN
 90
        2
 91
        1
300
_HEADER
309
CELLSTYLE_END
300
CELLSTYLE
  1
TABLEFORMAT_BEGIN
 90
        5
170
     1
 91
        0
 92
        0
 62
   257
 93
        1
300
CONTENTFORMAT
  1
CONTENTFORMAT_BEGIN
 90
        0
 91
        0
 92
      512
 93
        0
300

 40
0.0
140
1.0
 94
        2
 62
     0
340
201
144
0.18
309
CONTENTFORMAT_END
171
     1
301
MARGIN
  1
CELLMARGIN_BEGIN
 40
0.06
 40
0.06
 40
0.06
 40
0.06
 40
0.18
 40
0.18
309
CELLMARGIN_END
 94
        6
 95
        1
302
GRIDFORMAT
  1
GRIDFORMAT_BEGIN
 90
        0
 91
        1
 62
     0
 92
       -2
340
0
 93
        0
 40
0.045
309
GRIDFORMAT_END
 95
        2
302
GRIDFORMAT
  1
GRIDFORMAT_BEGIN
 90
        0
 91
        1
 62
     0
 92
       -2
340
0
 93
        0
 40
0.045
309
GRIDFORMAT_END
 95
        4
302
GRIDFORMAT
  1
GRIDFORMAT_BEGIN
 90
        0
 91
        1
 62
     0
 92
       -2
340
0
 93
        0
 40
0.045
309
GRIDFORMAT_END
 95
        8
302
GRIDFORMAT
  1
GRIDFORMAT_BEGIN
 90
        0
 91
        1
 62
     0
 92
       -2
340
0
 93
        0
 40
0.045
309
GRIDFORMAT_END
 95
       16
302
GRIDFORMAT
  1
GRIDFORMAT_BEGIN
 90
        0
 91
        1
 62
     0
 92
       -2
340
0
 93
        0
 40
0.045
309
GRIDFORMAT_END
 95
       32
302
GRIDFORMAT
  1
GRIDFORMAT_BEGIN
 90
        0
 91
        1
 62
     0
 92
       -2
340
0
 93
        0
 40
0.045
309
GRIDFORMAT_END
309
TABLEFORMAT_END
  1
CELLSTYLE_BEGIN
 90
        3
 91
        2
300
_DATA
309
CELLSTYLE_END
  0
ENDSEC
  0
EOF
